6.6 Judgment Night (1993)
Microsoft Office 2007 Enterprise Genuine Blue Edition
Loading...
Loading...
Loading...

Artisti Vari - Merlin OST (2008-2012) [Mp3 320 Kbps]

Seeders: 2
Leechers: n/a
Completed: n/a

Age: 6 days    Visits: 47    Category: Music    Size: 599.7 MB

Posted by: Alice1337x    Comments: Read Comments

Info Hash: 08A16063A0B9E3A35A9CD2535A437B30862ABBFE



Now You Can Download Torrents From Kat.cr, Kickasstorrent Very Easily



Torrent Description



Rob Lane - Merlin (Original Television Soundtrack) [2008]



.: Dati Album :.

Anno: 2008

.: Tracklist :.


1 Merlin’s Arrival At Camelot 3:08
2 The Tournament Begins 2:25
3 The Witch's Threat 2:01
4 Hunith's Letter To Gaius 1:41
5 Meeting Arthur / Lady Helen Possessed 4:14
6 Fighting In The Market 1:45
7 The Magic Shield 1:03
8 Arthur And Knight Valiant 3:26
9 Merlin Lost 1:41
10 To Morgana 2:31
11 The Burdens Of Duty 2:11
12 Breaking The Spell 2:14
13 Plague In The Water 1:33
14 Arthur's Final Battle 7:34
15 Guinevere 1:31
16 Defeating The Afanc 3:05
17 The Witch's Aria 3:08
18 The Call Of Destiny / Titles 1:56

.: Dati Tecnici :.

General
Complete name : D:\Downloads\OST VA - Merlin (mp3)\2008 - Merlin - Series 1\01 - Merlin's Arrival at Camelot.mp3
Format : MPEG Audio
File size : 7.18 MiB
Duration : 3 min 8 s
Overall bit rate mode : Constant
Overall bit rate : 320 kb/s
Album : Merlin (Original Television Soundtrack)
Album/Performer : Rob Lane
Track name : Merlin's Arrival at Camelot
Track name/Position : 1
Performer : Rob Lane
Genre : Sound Clip
Recorded date : 2008
Writing library : LAME3.99r

Audio
Format : MPEG Audio
Format version : Version 1
Format profile : Layer 3
Format settings : Joint stereo
Duration : 3 min 8 s
Bit rate mode : Constant
Bit rate : 320 kb/s
Channel(s) : 2 channels
Sampling rate : 44.1 kHz
Frame rate : 38.281 FPS (1152 SPF)
Compression mode : Lossy
Stream size : 7.17 MiB (100%)
Writing library : LAME3.99r
Encoding settings : -m j -V 4 -q 3 -lowpass 20.5

Rob Lane And Rohan Stevenson - Merlin: Series Two (Original Television Soundtrack) (2009)



.: Dati Album :.

Anno: 2009

.: Tracklist :.

1 Rob Lane Main Titles 0:34
2 Rohan Stevenson Sigan's Revenge 3:14
3 Rob Lane The Attraction Of Evil 3:01
4 Rob Lane Gwen & Arthur 0:55
5 Rohan Stevenson Avalon 4:12
6 Rob Lane The Substitute Knight 1:23
7 Rob Lane The Joust 2:00
8 Rob Lane Myror Of Assassin 2:31
9 Rohan Stevenson Lancelot Leaves 1:55
10 Rohan Stevenson The Machinations Of Cedric 1:56
11 Rob Lane The Mark Of The Raven 1:42
12 Rob Lane Sigan's Tomb 2:15
13 Rohan Stevenson Settlement Attack 3:46
14 James Gosling Gaius Arraigned 1:40
15 Rohan Stevenson Farewell To Gwen 1:42
16 Rohan Stevenson The Forged Seal 1:22
17 Rob Lane Lancelot's Heroism 3:04
18 Rohan Stevenson Morgana's Nightmares 3:52
19 Rohan Stevenson Hiding Excalibur 2:05
20 Rob Lane Finale 8:58

.: Dati Tecnici :.

General
Complete name : D:\Downloads\OST VA - Merlin (mp3)\2009 - Merlin - Series 2\01 - Main Titles.mp3
Format : MPEG Audio
File size : 1.37 MiB
Duration : 34 s 507 ms
Overall bit rate mode : Constant
Overall bit rate : 320 kb/s
Album : Merlin: Series Two
Track name : Main Titles
Track name/Position : 1
Performer : Rob Lane
Genre : Soundtrack
Recorded date : 2009
Writing library : LAME3.99r
Cover : Yes
Cover type : Cover (front)
Cover MIME : image/jpeg

Audio
Format : MPEG Audio
Format version : Version 1
Format profile : Layer 3
Format settings : Joint stereo
Duration : 34 s 507 ms
Bit rate mode : Constant
Bit rate : 320 kb/s
Channel(s) : 2 channels
Sampling rate : 44.1 kHz
Frame rate : 38.281 FPS (1152 SPF)
Compression mode : Lossy
Stream size : 1.32 MiB (96%)
Writing library : LAME3.99r
Encoding settings : -m j -V 4 -q 3 -lowpass 20.5

Rob Lane, Rohan Stevenson & James Gosling - Merlin: Series Three (Original Television Soundtrack) (2012)



.: Dati Album :.

Anno: 2012

.: Tracklist :.

1 Rob Lane Main Titles - A Kingdom Under Threat 1:37
2 Rob Lane Bandit Attack 1:25
3 Rob Lane Morgana Recuperates 1:55
4 Rob Lane Business As Usual 0:49
5 Rob Lane Uther & Morgana Reunited 1:22
6 Rob Lane Treachery 3:21
7 Rob Lane Merlin In Peril - Dragon Rescue 2:53
8 Rohan Stevenson Gwaine's Bar Brawl 1:50
9 Rohan Stevenson Morgana Close To Death 2:41
10 Rob Lane Gaius The Goblin 3:42
11 Rohan Stevenson Skeleton Attack 1:20
12 Rohan Stevenson The Farting Princess 1:13
13 Rohan Stevenson Seducing Pixie 5:03
14 Rohan Stevenson The Melee 5:47
15 James Gosling Freya 6:33
16 James Gosling The Fisher King 4:40
17 Rohan Stevenson Infiltrate The Citadel 7:19
18 Rohan Stevenson Finale - The Sword In The Stone 7:13

.: Dati Tecnici :.

General
Complete name : D:\Downloads\OST VA - Merlin (mp3)\2012 - Merlin - Series 3\01 - Main Titles A Kingdom Under Threat.mp3
Format : MPEG Audio
File size : 3.77 MiB
Duration : 1 min 37 s
Overall bit rate mode : Constant
Overall bit rate : 320 kb/s
Album : Merlin: Series Three
Track name : Main Titles / A Kingdom Under Threat
Track name/Position : 1
Performer : Rob Lane
Genre : Soundtrack
Recorded date : 2012
Writing library : LAME3.99r
Cover : Yes
Cover type : Cover (front)
Cover MIME : image/jpeg

Audio
Format : MPEG Audio
Format version : Version 1
Format profile : Layer 3
Format settings : Joint stereo
Duration : 1 min 37 s
Bit rate mode : Constant
Bit rate : 320 kb/s
Channel(s) : 2 channels
Sampling rate : 44.1 kHz
Frame rate : 38.281 FPS (1152 SPF)
Compression mode : Lossy
Stream size : 3.71 MiB (99%)
Writing library : LAME3.99r
Encoding settings : -m j -V 4 -q 3 -lowpass 20.5

Rob Lane, Rohan Stevenson, James Gosling & Michal Pavlicek* ?- Merlin: Series Four (Original Television Soundtrack) (2012)



.: Dati Album :.

Anno: 2012

.: Tracklist :.

1 Rob Lane / James Gosling Titles - The Strange Girl 4:41
2 Rohan Stevenson Merlin And Morgana Duel 3:09
3 Rob Lane The Darkest Hour 1:01
4 Michal Pavlicek* The Burial 3:09
5 Rob Lane Arthur Asked To Lead 1:27
6 Rohan Stevenson Arthur And The Madness Of Love 4:53
7 Rohan Stevenson The Nightmare And The Sidhe 2:41
8 Rohan Stevenson Cenred's Kingdom 3:06
9 Rohan Stevenson Oswald Ambushed 1:58
10 Rohan Stevenson Morgana's Hatred Of Uther 2:13
11 Rohan Stevenson Merlin Brews A Potion 1:24
12 Rohan Stevenson Morgause's Magic 4:18
13 Rohan Stevenson Lancelot's Fight 2:07
14 Rohan Stevenson Ygraine's Theme 3:53
15 Rohan Stevenson Morgana Spared 3:57
16 Rohan Stevenson Morgana Poisoned 3:23
17 Rob Lane Knights Of The Round Table 4:16
18 Rob Lane The Bond Of Sacrifice 2:17
19 James Gosling The Labyrinth Of Gedreth 2:43

.: Dati Tecnici :.

General
Complete name : D:\Downloads\OST VA - Merlin (mp3)\2012 - Merlin - Series 4\01 - Titles The Strange Girl.mp3
Format : MPEG Audio
File size : 10.8 MiB
Duration : 4 min 41 s
Overall bit rate mode : Constant
Overall bit rate : 320 kb/s
Album : Merlin: Series Four
Track name : Titles / The Strange Girl
Track name/Position : 1
Performer : Rob Lane, James Gosling
Genre : Soundtrack
Recorded date : 2012
Writing library : LAME3.99r
Cover : Yes
Cover type : Cover (front)
Cover MIME : image/jpeg

Audio
Format : MPEG Audio
Format version : Version 1
Format profile : Layer 3
Format settings : Joint stereo
Duration : 4 min 41 s
Bit rate mode : Constant
Bit rate : 320 kb/s
Channel(s) : 2 channels
Sampling rate : 44.1 kHz
Frame rate : 38.281 FPS (1152 SPF)
Compression mode : Lossy
Stream size : 10.7 MiB (99%)
Writing library : LAME3.99r
Encoding settings : -m j -V 4 -q 3 -lowpass 20.5

Grazie a chi ha condiviso in rete questa colonna sonora





Recently Added Torrents in Music

Trackers List

tracker name
udp://tracker.opentrackr.org:1337/announce
udp://tracker.leechers-paradise.org:6969/announce
udp://tracker.pirateparty.gr:6969/announce
udp://tracker.coppersurfer.tk:6969/announce
udp://tracker.mg64.net:2710/announce
udp://tracker.zer0day.to:1337/announce

Sharing Widget


Download torrent
599.7 MB
Seeders: 2
Leechers: n/a
Artisti Vari - Merlin OST (2008-2012) [Mp3 320 Kbps]