Media Player Codec Pack 4.4.5.707
digitalsinbrother2
Loading...
Loading...
Loading...

Baaghi 2 2018 Hindi 720p HDRip AAC 2 0 x264 [MW]

Seeders: 2
Leechers: 6
Completed: n/a

Age: 1 minute    Visits: 0    Category: Movies    Size: 1.2 GB

Posted by: moviezworldz    Comments: Read Comments

Info Hash: EF4EE93D4BABBC4C478E64091EF0115A379DE19A



Now You Can Download Torrents From Kat.cr, Kickasstorrent Very Easily



Torrent Description







General
Format : Matroska
Format version : Version 4 / Version 2
File size : 1.22 GiB
Duration : 2 h 23 min
Overall bit rate : 1 221 kb/s

Video
ID : 1
Format : AVC
Format/Info : Advanced Video Codec
Format profile : [email protected]
Format settings : CABAC / 4 Ref Frames
Format settings, CABAC : Yes
Format settings, RefFrames : 4 frames
Codec ID : V_MPEG4/ISO/AVC
Duration : 2 h 23 min
Bit rate : 1 100 kb/s
Width : 1 280 pixels
Height : 540 pixels
Display aspect ratio : 2.40:1
Frame rate mode : Constant
Frame rate : 15.000 FPS
Color space : YUV
Chroma subsampling : 4:2:0
Bit depth : 8 bits
Scan type : Progressive
Bits/(Pixel*Frame) : 0.106
Stream size : 1.09 GiB (89%)
Writing library : x264 core 155 r2893 b00bcaf
Default : Yes
Forced : No

Audio
ID : 2
Format : AAC
Format/Info : Advanced Audio Codec
Format profile : LC
Codec ID : A_AAC-2
Duration : 2 h 23 min
Bit rate : 128 kb/s
Channel(s) : 2 channels
Channel positions : Front: L R
Sampling rate : 48.0 kHz
Frame rate : 46.875 FPS (1024 SPF)
Compression mode : Lossy
Stream size : 131 MiB (10%)
Language : Hindi
Default : Yes
Forced : No


















Recently Added Torrents in Movies

Trackers List

tracker name
udp://tracker.opentrackr.org:1337/announce
udp://tracker.leechers-paradise.org:6969/announce
udp://tracker.pirateparty.gr:6969/announce
udp://tracker.coppersurfer.tk:6969/announce
udp://tracker.mg64.net:2710/announce
udp://tracker.zer0day.to:1337/announce

Sharing Widget


Download torrent
1.2 GB
Seeders: 2
Leechers: 6
Baaghi 2 2018 Hindi 720p HDRip AAC 2 0 x264 [MW]