Ministry Of Sound: I Love 90s 3CD
Johnny Mac
Loading...
Loading...
Loading...

Black Panther 2018 720p HC HDTC AAC LLG

Seeders: 1
Leechers: 6
Completed: n/a

Age: 41 seconds    Visits: 0    Category: Movies    Size: 877.3 MB

Posted by: LifeLongg    Comments: Read Comments

Info Hash: 52238176C7B17F78EF3552BBE48B67329E747AE7



Now You Can Download Torrents From Kat.cr, Kickasstorrent Very Easily



Torrent Description







******************************Thumbnail:**********************



******************************Screenshots:********************

Screenshot 1

Screenshot 2

Screenshot 3

Screenshot 4

Screenshot 5

Screenshot 6

Screenshot 7

Screenshot 8

Screenshot 9

Screenshot 0

**************************************************************

Complete name : Black Panther.2018.720p.HC.HDTC.AAC.LLG.mp4
Format : MPEG-4
Format profile : Base Media
Codec ID : isom (isom/iso2/avc1/mp41)
File size : 871 MiB
Duration : 2 h 6 min
Overall bit rate : 961 kb/s
Writing application : Lavf57.56.101

Video
ID : 1
Format : AVC
Format/Info : Advanced Video Codec
Format profile : [email protected]
Format settings : CABAC / 4 Ref Frames
Format settings, CABAC : Yes
Format settings, RefFrames : 4 frames
Codec ID : avc1
Codec ID/Info : Advanced Video Coding
Duration : 2 h 6 min
Bit rate : 900 kb/s
Width : 1 280 pixels
Height : 480 pixels
Display aspect ratio : 2.667
Frame rate mode : Constant
Frame rate : 25.000 FPS
Color space : YUV
Chroma subsampling : 4:2:0
Bit depth : 8 bits
Scan type : Progressive
Bits/(Pixel*Frame) : 0.059
Stream size : 808 MiB (93%)

Audio
ID : 2
Format : AAC
Format/Info : Advanced Audio Codec
Format profile : LC
Codec ID : mp4a-40-2
Duration : 2 h 6 min
Bit rate mode : Constant
Bit rate : 64.3 kb/s
Channel(s) : 2 channels
Channel positions : Front: L R
Sampling rate : 48.0 kHz
Frame rate : 46.875 FPS (1024 SPF)
Compression mode : Lossy
Stream size : 58.3 MiB (7%)
Language : English
Default : Yes
Alternate group : 1





Recently Added Torrents in Movies

Trackers List

tracker name
udp://tracker.opentrackr.org:1337/announce
udp://tracker.leechers-paradise.org:6969/announce
udp://tracker.pirateparty.gr:6969/announce
udp://tracker.coppersurfer.tk:6969/announce
udp://tracker.mg64.net:2710/announce
udp://tracker.zer0day.to:1337/announce

Sharing Widget


Download torrent
877.3 MB
Seeders: 1
Leechers: 6
Black Panther 2018 720p HC HDTC AAC LLG