Plagues and Peoples
Berlin Station
Loading...
Loading...
Loading...
Loading...

Brick Mansions (2014), [BDrip 1080p - H264 - Ita Eng Dts 5 1 Ita Ac3 5 1 - Sub Ita NUIta] Azione by BLUWORLD

Seeders: 1
Leechers: 2
Completed: 13

Age: 2 months    Visits: 92    Category: Movies    Size: 7.0 GB

Posted by: Alice1337x    Comments: Read Comments

Info Hash: 6A8C5F845E0C814D3ED47FD0E9084A2F547BD2A5



Now You Can Download Torrents From Kat.cr, Kickasstorrent Very Easily



Torrent Description



Brick Mansions (2014)



Titolo originale: Brick Mansions
Nazionalità: Francia, Canada
Anno: 2014
Genere: azione
Regia: Camille Delamarre

Cast:
Paul Walker: Damien Collier
David Belle: Lino Duppre
RZA: Tremaine Alexander
Couchy Boy: K2
Catalina Denis: Lola
Carlo Rota: George
Abdul Ayoola: poliziotto al computer

Nel 2018 nella città di Detroit un intero quartiere dominato dalla malavita viene isolato tramite un muro di cinta eretto dalla polizia e controllato da soldati. Nella zona chiusa, che viene ribattezzata "brick mansions", il crimine si rafforza ulteriormente fino a che non viene attivata una bomba. La polizia manda un suo uomo sotto copertura per disinnescare l'ordigno.







General
Unique ID : 195358917066164361838012621831975551034 (0x92F8C2428E95F80F9D3CFCCC5849403A)
Complete name : D:\Brick.Mansions.2014.DTS.ITA.ENG.1080p.BluRay.x264-BLUWORLD.mkv
Format : Matroska
Format version : Version 4 / Version 2
File size : 7.00 GiB
Duration : 1 h 30 min
Overall bit rate mode : Variable
Overall bit rate : 11.1 Mb/s
Encoded date : UTC 2014-09-11 08:13:47
Writing application : mkvmerge v7.1.0 ('Good Love') 32bit built on Jul 27 2014 12:59:18
Writing library : libebml v1.3.0 + libmatroska v1.4.1

Video
ID : 1
Format : AVC
Format/Info : Advanced Video Codec
Format profile : [email protected]
Format settings, CABAC : Yes
Format settings, ReFrames : 5 frames
Codec ID : V_MPEG4/ISO/AVC
Duration : 1 h 30 min
Bit rate mode : Variable
Bit rate : 8 200 kb/s
Maximum bit rate : 62.5 Mb/s
Width : 1 920 pixels
Height : 800 pixels
Display aspect ratio : 2.40:1
Frame rate mode : Constant
Frame rate : 24.000 FPS
Color space : YUV
Chroma subsampling : 4:2:0
Bit depth : 8 bits
Scan type : Progressive
Bits/(Pixel*Frame) : 0.222
Stream size : 5.16 GiB (74%)
Writing library : x264 core 142 r2479 dd79a61
Default : Yes
Forced : No

Audio #1
ID : 2
Format : DTS
Format/Info : Digital Theater Systems
Mode : 16
Format settings, Endianness : Big
Codec ID : A_DTS
Duration : 1 h 30 min
Bit rate mode : Constant
Bit rate : 768 kb/s
Channel(s) : 6 channels
Channel positions : Front: L C R, Side: L R, LFE
Sampling rate : 48.0 kHz
Frame rate : 93.750 FPS (512 spf)
Bit depth : 24 bits
Compression mode : Lossy
Stream size : 495 MiB (7%)
Title : Ita. DTS 768 Kbps
Language : Italian
Default : Yes
Forced : No

Audio #2
ID : 3
Format : AC-3
Format/Info : Audio Coding 3
Format settings, Endianness : Big
Codec ID : A_AC3
Duration : 1 h 30 min
Bit rate mode : Constant
Bit rate : 640 kb/s
Channel(s) : 6 channels
Channel positions : Front: L C R, Side: L R, LFE
Sampling rate : 48.0 kHz
Frame rate : 31.250 FPS (1536 spf)
Bit depth : 16 bits
Compression mode : Lossy
Stream size : 413 MiB (6%)
Title : Ita. AC3 640 Kbps
Language : Italian
Service kind : Complete Main
Default : No
Forced : No

Audio #3
ID : 4
Format : DTS
Format/Info : Digital Theater Systems
Mode : 16
Format settings, Endianness : Big
Codec ID : A_DTS
Duration : 1 h 30 min
Bit rate mode : Constant
Bit rate : 1 509 kb/s
Channel(s) : 6 channels
Channel positions : Front: L C R, Side: L R, LFE
Sampling rate : 48.0 kHz
Frame rate : 93.750 FPS (512 spf)
Bit depth : 16 bits
Compression mode : Lossy
Stream size : 974 MiB (14%)
Title : Eng. DTS 1510 Kbps
Language : English
Default : No
Forced : No

Text #1
ID : 5
Format : UTF-8
Codec ID : S_TEXT/UTF8
Codec ID/Info : UTF-8 Plain Text
Duration : 1 h 23 min
Bit rate : 49 b/s
Count of elements : 959
Stream size : 30.1 KiB (0%)
Title : Sub. Ita.
Language : Italian
Default : No
Forced : No

Text #2
ID : 6
Format : UTF-8
Codec ID : S_TEXT/UTF8
Codec ID/Info : UTF-8 Plain Text
Duration : 1 h 23 min
Bit rate : 52 b/s
Count of elements : 1036
Stream size : 32.5 KiB (0%)
Title : Sub. Ita. Non Udenti
Language : Italian
Default : No
Forced : No

Menu
00:00:00.000 : en:00:00:00.000
00:10:18.083 : en:00:10:18.083
00:21:15.292 : en:00:21:15.292
00:35:14.750 : en:00:35:14.750
00:48:49.625 : en:00:48:49.625
00:59:00.333 : en:00:59:00.333
01:12:22.667 : en:01:12:22.667
01:22:52.750 : en:01:22:52.750









Recently Added Torrents in Movies

Trackers List

tracker name
udp://tracker.opentrackr.org:1337/announce
udp://tracker.leechers-paradise.org:6969/announce
udp://tracker.pirateparty.gr:6969/announce
udp://tracker.coppersurfer.tk:6969/announce
udp://tracker.mg64.net:2710/announce
udp://tracker.zer0day.to:1337/announce

Sharing Widget


Download torrent
7.0 GB
Seeders: 1
Leechers: 2
Brick Mansions (2014), [BDrip 1080p - H264 - Ita Eng Dts 5 1 Ita Ac3 5 1 - Sub Ita NUIta] Azione by BLUWORLD