TarzanThehemanhindi
Kevin Donovan
Loading...
Loading...
Loading...
Loading...

Colette - Un amore più forte di tutto (2013), [Mux - XviD - Ita Eng Mp3] BDmux - Drammatico

Seeders: 1
Leechers: n/a
Completed: n/a

Age: 2 months    Visits: 54    Category: Movies    Size: 1.3 GB

Posted by: Alice1337x    Comments: Read Comments

Info Hash: B7D328F1902C904A8D7DA91E73814360C6DA4E2C



Now You Can Download Torrents From Kat.cr, Kickasstorrent Very Easily



Torrent Description



Colette - Un amore più forte di tutto (2013)



Titolo originale: Colette
Nazionalità: Slovacchia, Repubblica Ceca
Anno: 2013
Genere: drammatico
Regia di Milan Cieslar

Con Jirí Mádl, Clémence Thioly, Eric Bouwer, Andrej Hryc, Zuzana Mauréry, Helena Dvoráková, Ondrej Vetchý, Kristína Svarinská...

Durante le terribili violenze scaturite dalla Seconda guerra mondiale, gli innamorati Villi e Colette vengono catturati dai nazisti e mandati nel famigerato campo di concentramento di Auschwitz.
Determinati a stare insieme ma ospitati in composti separati, rischieranno le loro stesse vite per fuggire.

Basato su un romanzo dello scrittore ceco di origini ebraiche Arnošt Lustig, nominato per il Premio Pullitzer, che riuscì a sfuggire alla persecuzione nazista saltando dal treno che nel 1945 lo stava portando a Dachau.



General
Complete name : D:\[CURA] Il Giorno Della Memoria\Colette.2013.BDmux.XviD.by.AliceTNT.avi
Format : AVI
Format/Info : Audio Video Interleave
File size : 1.27 GiB
Duration : 2 h 4 min
Overall bit rate mode : Variable
Overall bit rate : 1 451 kb/s
Writing application : VirtualDubMod 1.5.10.2 (build 2542/release)
Writing library : VirtualDubMod build 2542/release

Video
ID : 0
Format : MPEG-4 Visual
Format profile : Advanced [email protected]
Format settings, BVOP : 1
Format settings, QPel : No
Format settings, GMC : No warppoints
Format settings, Matrix : Default (MPEG)
Codec ID : XVID
Codec ID/Hint : XviD
Duration : 2 h 4 min
Bit rate : 1 200 kb/s
Width : 720 pixels
Height : 304 pixels
Display aspect ratio : 2.35:1
Frame rate : 24.000 FPS
Color space : YUV
Chroma subsampling : 4:2:0
Bit depth : 8 bits
Scan type : Progressive
Compression mode : Lossy
Bits/(Pixel*Frame) : 0.228
Stream size : 1.05 GiB (83%)
Writing library : XviD 67

Audio #1
ID : 1
Format : MPEG Audio
Format version : Version 1
Format profile : Layer 3
Codec ID : 55
Codec ID/Hint : MP3
Duration : 2 h 4 min
Bit rate mode : Variable
Bit rate : 106 kb/s
Nominal bit rate : 112 kb/s
Channel(s) : 2 channels
Sampling rate : 48.0 kHz
Compression mode : Lossy
Stream size : 94.6 MiB (7%)
Alignment : Aligned on interleaves
Interleave, duration : 24 ms (0.58 video frame)
Interleave, preload duration : 570 ms
Title : Italian
Writing library : LAME3.99r
Encoding settings : -m s -V 4 -q 3 -lowpass 15.6 --abr 112

Audio #2
ID : 2
Format : MPEG Audio
Format version : Version 1
Format profile : Layer 3
Mode : Joint stereo
Mode extension : MS Stereo
Codec ID : 55
Codec ID/Hint : MP3
Duration : 2 h 4 min
Bit rate mode : Constant
Bit rate : 128 kb/s
Channel(s) : 2 channels
Sampling rate : 48.0 kHz
Compression mode : Lossy
Stream size : 114 MiB (9%)
Alignment : Aligned on interleaves
Interleave, duration : 42 ms (1.00 video frame)
Interleave, preload duration : 504 ms
Title : English
Writing library : LAME3.99r
Encoding settings : -m j -V 4 -q 2 -lowpass 17 -b 128



Grazie al ripper e a BL4CKDREAM

Grazie a pir8 per la sua guida al mux





Recently Added Torrents in Movies

Trackers List

tracker name
udp://tracker.opentrackr.org:1337/announce
udp://tracker.leechers-paradise.org:6969/announce
udp://tracker.pirateparty.gr:6969/announce
udp://tracker.coppersurfer.tk:6969/announce
udp://tracker.mg64.net:2710/announce
udp://tracker.zer0day.to:1337/announce

Sharing Widget


Download torrent
1.3 GB
Seeders: 1
Leechers: n/a
Colette - Un amore più forte di tutto (2013), [Mux - XviD - Ita Eng Mp3] BDmux - Drammatico