Ishq Masala Eid Day Special - Pakistani...
AKA Playland
Loading...
Loading...
Loading...

Dawning Of The Dead A K A Apocalypse 2017 Movies 720p HDRip x264 5 1 with Sample ☻rDX☻

Seeders: 1
Leechers: n/a
Completed: n/a

Age: 2 minutes    Visits: 1    Category: Movies    Size: 1.1 GB

Posted by: nehalpuja    Comments: Read Comments

Info Hash: 8A34DA8F3BE1777CBC42F69015054124ABD7CC0D



Now You Can Download Torrents From Kat.cr, Kickasstorrent Very Easily



Torrent Description



Dawning Of The Dead A.K.A. Apocalypse 2017 Movies 720p HDRip x264 5.1 with Sample ☻rDX☻
===============================================================================================

SCREEN SHOTS:



or

http://iphonehosting.eu/2018/4/bike/1.html

File size : 1.08 GiB
Duration : 1 h 43 min
Overall bit rate : 1 485 kb/s
Movie name : Dawning Of The Dead A.K.A. Apocalypse 2017 Movies 720p HDRip x264 5.1 ☻rDX☻

Video
ID : 2
Format : AVC
Format/Info : Advanced Video Codec
Format profile : [email protected]
Format settings, CABAC : Yes
Format settings, ReFrames : 4 frames
Codec ID : V_MPEG4/ISO/AVC
Duration : 1 h 43 min
Bit rate : 1 100 kb/s
Width : 1 280 pixels
Height : 528 pixels
Display aspect ratio : 2.40:1
Frame rate mode : Constant
Frame rate : 23.976 (23976/1000) FPS
Color space : YUV
Chroma subsampling : 4:2:0
Bit depth : 8 bits
Scan type : Progressive
Bits/(Pixel*Frame) : 0.068
Stream size : 795 MiB (72%)
Title : ☻rDX☻
Writing library : x264

Audio
ID : 1
Format : AC-3
Format/Info : Audio Coding 3
Mode extension : CM (complete main)
Format settings, Endianness : Big
Codec ID : A_AC3
Duration : 1 h 43 min
Bit rate mode : Constant
Bit rate : 384 kb/s
Channel(s) : 6 channels
Channel positions : Front: L C R, Side: L R, LFE
Sampling rate : 48.0 kHz
Frame rate : 31.250 FPS (1536 spf)
Bit depth : 16 bits
Compression mode : Lossy
Stream size : 285 MiB (26%)
Title : ☻rDX☻
Default : Yes
Forced : No



IMDB : http://www.imdb.com/title/tt3332282/





Recently Added Torrents in Movies

Trackers List

tracker name
udp://tracker.opentrackr.org:1337/announce
udp://tracker.leechers-paradise.org:6969/announce
udp://tracker.pirateparty.gr:6969/announce
udp://tracker.coppersurfer.tk:6969/announce
udp://tracker.mg64.net:2710/announce
udp://tracker.zer0day.to:1337/announce

Sharing Widget


Download torrent
1.1 GB
Seeders: 1
Leechers: n/a
Dawning Of The Dead A K A Apocalypse 2017 Movies 720p HDRip x264 5 1 with Sample ☻rDX☻