Transformers: The Last Knight FRENCH
Avast Antivirus Gratuit
Loading...
Loading...
Loading...

Dilwale Dulhania Le Jayenge 1995 Hindi 1080p BRrip x264 DTS 5 1 Skyler Shd

Seeders: 2
Leechers: 9
Completed: n/a

Age: 55 minutes    Visits: 14    Category: Movies    Size: 3.7 GB

Posted by: rinku4445    Comments: Read Comments

Info Hash: 3120132095647DF87A11FFD8EEAC3B64D8D6BE46



Now You Can Download Torrents From Kat.cr, Kickasstorrent Very Easily



Torrent Description








Dilwale Dulhania Le Jayenge 1995 Hindi 1080p BRrip x264 DTS 5.1 Skyler Shd

Storyline
When Raj (Shahrukh Khan) and Simran (Kajol) first met on an inter-rail holiday in Europe, it wasn't exactly Love at first sight but when Simran is taken back to India for an arranged marriage, things change. Encouraged by his father Dharamvir (Anupam Kher), Raj decides to fly down from London to not just win his Bride but her whole family and the blessings of her father Baldev Singh (Amrish Puri).

Video
ID : 1
Format : AVC
Format/Info : Advanced Video Codec
Format profile : [email protected]
Format settings : CABAC / 5 Ref Frames
Format settings, CABAC : Yes
Format settings, RefFrames : 5 frames
Codec ID : V_MPEG4/ISO/AVC
Duration : 3 h 9 min
Bit rate : 1 990 kb/s
Width : 1 918 pixels
Height : 816 pixels
Display aspect ratio : 2.35:1
Frame rate mode : Constant
Frame rate : 24.000 FPS
Color space : YUV
Chroma subsampling : 4:2:0
Bit depth : 8 bits
Scan type : Progressive
Bits/(Pixel*Frame) : 0.053
Stream size : 2.64 GiB (72%)
Title : Dilwale Dulhania Le Jayenge 1995
Language : Hindi
Default : Yes
Forced : No
Color range : Limited
Color primaries : BT.709
Transfer characteristics : BT.709
Matrix coefficients : BT.709

Audio #1
ID : 2
Format : DTS
Format/Info : Digital Theater Systems
Codec ID : A_DTS
Duration : 3 h 9 min
Bit rate mode : Constant
Bit rate : 756 kb/s
Channel(s) : 6 channels
Channel positions : Front: L C R, Side: L R, LFE
Sampling rate : 48.0 kHz
Frame rate : 93.750 FPS (512 SPF)
Bit depth : 16 bits
Compression mode : Lossy
Delay relative to video : -1 ms
Stream size : 1.00 GiB (28%)
Title : DTS By Skyler shd
Language : Hindi
Default : Yes
Forced : No

Text #1
ID : 3
Format : UTF-8
Codec ID : S_TEXT/UTF8
Codec ID/Info : UTF-8 Plain Text
Duration : 1 min 19 s
Bit rate : 27 b/s
Count of elements : 7
Stream size : 273 Bytes (0%)
Title : Skyler Shd
Language : English
Default : Yes
Forced : No
[/color]
















Quote:

Details
Official Sites: Yash Raj Films
Country: India
Language: Hindi | Urdu | English | Panjabi
Release Date: 20 October 1995 (India) See more »
Also Known As: The Big-Hearted Will Win the Bride See more »
Filming Locations: Angel Underground Station, Islington, London, England, UK See more »

Box Office
Budget:INR 40,000,000 (estimated)
See more on IMDbPro [http://www.imdb.com/title/tt0112870/]

Company Credits
Production Co: Yash Raj Films See more »
Show more on IMDbPro »

Technical Specs
Runtime: 02h.09m,59s
Sound Mix: DTS[765 Kb/s] By Skyler Shd
Color: Color
Aspect Ratio: 2.35 : 1









Recently Added Torrents in Movies

Trackers List

tracker name
udp://tracker.opentrackr.org:1337/announce
udp://tracker.leechers-paradise.org:6969/announce
udp://tracker.pirateparty.gr:6969/announce
udp://tracker.coppersurfer.tk:6969/announce
udp://tracker.mg64.net:2710/announce
udp://tracker.zer0day.to:1337/announce

Sharing Widget


Download torrent
3.7 GB
Seeders: 2
Leechers: 9
Dilwale Dulhania Le Jayenge 1995 Hindi 1080p BRrip x264 DTS 5 1 Skyler Shd