Kinderfilm
Angie Tribeca – Saison 1 VF
Loading...
Loading...
Loading...

Do You Trust This Computer 2018 720p WEB-DL x264 [MW]

Seeders: 2
Leechers: 1
Completed: 1

Age: 1 minute    Visits: 0    Category: Movies    Size: 719.3 MB

Posted by: moviezworldz    Comments: Read Comments

Info Hash: E64DA05C1B73E067122368581E3790CB8E7F8343



Now You Can Download Torrents From Kat.cr, Kickasstorrent Very Easily



Torrent Description







General
Format : Matroska
Format version : Version 4 / Version 2
File size : 719 MiB
Duration : 1 h 18 min
Overall bit rate : 1 287 kb/s

Video
ID : 1
Format : AVC
Format/Info : Advanced Video Codec
Format profile : [email protected]
Format settings : CABAC / 4 Ref Frames
Format settings, CABAC : Yes
Format settings, RefFrames : 4 frames
Codec ID : V_MPEG4/ISO/AVC
Duration : 1 h 18 min
Bit rate : 1 200 kb/s
Width : 1 280 pixels
Height : 720 pixels
Display aspect ratio : 16:9
Frame rate mode : Constant
Frame rate : 23.976 (24000/1001) FPS
Color space : YUV
Chroma subsampling : 4:2:0
Bit depth : 8 bits
Scan type : Progressive
Bits/(Pixel*Frame) : 0.054
Stream size : 665 MiB (93%)
Writing library : x264 core 155 r2893 b00bcaf
Default : Yes
Forced : No

Audio
ID : 2
Format : AAC
Format/Info : Advanced Audio Codec
Format profile : HE-AAC / LC
Format settings : Explicit
Codec ID : A_AAC-2
Duration : 1 h 18 min
Bit rate : 96.0 kb/s
Channel(s) : 2 channels
Channel positions : Front: L R
Sampling rate : 48.0 kHz / 24.0 kHz
Frame rate : 23.438 FPS (1024 SPF)
Compression mode : Lossy
Stream size : 52.9 MiB (7%)
Default : Yes
Forced : No
















Recently Added Torrents in Movies

Trackers List

tracker name
udp://tracker.opentrackr.org:1337/announce
udp://tracker.leechers-paradise.org:6969/announce
udp://tracker.pirateparty.gr:6969/announce
udp://tracker.coppersurfer.tk:6969/announce
udp://tracker.mg64.net:2710/announce
udp://tracker.zer0day.to:1337/announce

Sharing Widget


Download torrent
719.3 MB
Seeders: 2
Leechers: 1
Do You Trust This Computer 2018 720p WEB-DL x264 [MW]