Hard Truths
astroboy
Loading...
Loading...
Loading...

High Rise Rescue 2017 Movies 720p HDRip x264 5 1 with Sample ☻rDX☻

Seeders: 2
Leechers: 3
Completed: n/a

Age: 24 minutes    Visits: 5    Category: Movies    Size: 838.0 MB

Posted by: nehalpuja    Comments: Read Comments

Info Hash: 3E95D383AE1343C223390D0463AD1B6F77EF3043



Now You Can Download Torrents From Kat.cr, Kickasstorrent Very Easily



Torrent Description



High Rise Rescue 2017 Movies 720p HDRip x264 5.1 with Sample ☻rDX☻
===============================================================================================

SCREEN SHOTS:



or

http://iphonehosting.eu/2018/4/broadband/1.html

File size : 829 MiB
Duration : 1 h 28 min
Overall bit rate : 1 316 kb/s
Movie name : High Rise Rescue 2017 Movies 720p HDRip x264 5.1 ☻rDX☻

Video
ID : 2
Format : AVC
Format/Info : Advanced Video Codec
Format profile : [email protected]
Format settings, CABAC : Yes
Format settings, ReFrames : 4 frames
Codec ID : V_MPEG4/ISO/AVC
Duration : 1 h 28 min
Bit rate : 930 kb/s
Width : 1 280 pixels
Height : 720 pixels
Display aspect ratio : 16:9
Frame rate mode : Constant
Frame rate : 29.970 (30000/1001) FPS
Color space : YUV
Chroma subsampling : 4:2:0
Bit depth : 8 bits
Scan type : Progressive
Bits/(Pixel*Frame) : 0.034
Stream size : 571 MiB (69%)
Title : ☻rDX☻
Writing library : x264

Audio
ID : 1
Format : AC-3
Format/Info : Audio Coding 3
Mode extension : CM (complete main)
Format settings, Endianness : Big
Codec ID : A_AC3
Duration : 1 h 28 min
Bit rate mode : Constant
Bit rate : 384 kb/s
Channel(s) : 6 channels
Channel positions : Front: L C R, Side: L R, LFE
Sampling rate : 48.0 kHz
Frame rate : 31.250 FPS (1536 spf)
Bit depth : 16 bits
Compression mode : Lossy
Delay relative to video : -67 ms
Stream size : 242 MiB (29%)
Title : ☻rDX☻
Default : Yes
Forced : No



IMDB : http://www.imdb.com/title/tt5889292





Recently Added Torrents in Movies

Trackers List

tracker name
udp://tracker.opentrackr.org:1337/announce
udp://tracker.leechers-paradise.org:6969/announce
udp://tracker.pirateparty.gr:6969/announce
udp://tracker.coppersurfer.tk:6969/announce
udp://tracker.mg64.net:2710/announce
udp://tracker.zer0day.to:1337/announce

Sharing Widget


Download torrent
838.0 MB
Seeders: 2
Leechers: 3
High Rise Rescue 2017 Movies 720p HDRip x264 5 1 with Sample ☻rDX☻