R.O.D the TV (Dub)
Transparent
Loading...
Loading...
Loading...

Jaan (1996) DVDRip 576p Hindi H 264 ACC - LatestHDMovies

Seeders: 2
Leechers: 6
Completed: n/a

Age: 7 minutes    Visits: 0    Category: Movies    Size: 1.4 GB

Posted by: LHDM    Comments: Read Comments

Info Hash: A8FED9D2C52731E060A90D265B61497627CF6056



Now You Can Download Torrents From Kat.cr, Kickasstorrent Very Easily



Torrent Description







[[>>SAMPLE<<]]
http://openload.co/f/PNuObA3o73I/vlc-record-2018-04-16-19h52m24s-LatestHDMovies___TeamSHAHID-.avi







General
Unique ID : 183945743043124115213968822289915960212 (0x8A62A955E5953C0E3D621AA954FFDB94)
Complete name : C:\Users\SHAHID\Downloads\Video\Jaan (1996) DVDRip 576p Hindi H.264 ACC - LatestHDMovies.mkv
Format : Matroska
Format version : Version 4 / Version 2
File size : 1.35 GiB
Duration : 2 h 49 min
Overall bit rate : 1 142 kb/s
Movie name : LatestHDMovies | TeamSHAHID
Encoded date : UTC 2018-04-16 14:46:00
Writing application : mkvmerge v21.0.0 ('Tardigrades Will Inherit The Earth') 32-bit
Writing library : libebml v1.3.5 + libmatroska v1.4.8
Cover : Yes
Attachments : Cover.jpg

Video
ID : 1
Format : MPEG-4 Visual
Format profile : Advanced [email protected]
Format settings : BVOP2
Format settings, BVOP : 2
Format settings, QPel : No
Format settings, GMC : No warppoints
Format settings, Matrix : Default (H.263)
Codec ID : V_MS/VFW/FOURCC / XVID
Codec ID/Hint : XviD
Duration : 2 h 49 min
Bit rate : 1 012 kb/s
Width : 576 pixels
Height : 256 pixels
Display aspect ratio : 2.25:1
Frame rate mode : Constant
Frame rate : 29.970 (30000/1001) FPS
Color space : YUV
Chroma subsampling : 4:2:0
Bit depth : 8 bits
Scan type : Progressive
Compression mode : Lossy
Bits/(Pixel*Frame) : 0.229
Stream size : 1.20 GiB (89%)
Title : LatestHDMovies - TeamSHAHID
Writing library : XviD 1.2.1 (UTC 2008-12-04)
Default : Yes
Forced : No

Audio
ID : 2
Format : AC-3
Format/Info : Audio Coding 3
Codec ID : A_AC3
Duration : 2 h 49 min
Bit rate mode : Constant
Bit rate : 128 kb/s
Channel(s) : 6 channels
Channel positions : Front: L C R, Side: L R, LFE
Sampling rate : 48.0 kHz
Frame rate : 31.250 FPS (1536 SPF)
Bit depth : 16 bits
Compression mode : Lossy
Stream size : 155 MiB (11%)
Title : LatestHDMovies - TeamSHAHID
Language : Hindi
Service kind : Complete Main
Default : Yes
Forced : No








Recently Added Torrents in Movies

Trackers List

tracker name
udp://tracker.opentrackr.org:1337/announce
udp://tracker.leechers-paradise.org:6969/announce
udp://tracker.pirateparty.gr:6969/announce
udp://tracker.coppersurfer.tk:6969/announce
udp://tracker.mg64.net:2710/announce
udp://tracker.zer0day.to:1337/announce

Sharing Widget


Download torrent
1.4 GB
Seeders: 2
Leechers: 6
Jaan (1996) DVDRip 576p Hindi H 264 ACC - LatestHDMovies