Games - Other
Swapnanchya Palikadale
Loading...
Loading...
Loading...

La Rosa Bianca - Sophie Scholl (2005), [BDrip 1080p - H264 - Ita Ger Ac3 5 1 - Sub Ita Ger] Drammatico

Seeders: 3
Leechers: n/a
Completed: 1

Age: 2 months    Visits: 76    Category: Movies    Size: 9.5 GB

Posted by: Alice1337x    Comments: Read Comments

Info Hash: 05CAAA9DFB53F7D5E24233EDFED748F76F44B378



Now You Can Download Torrents From Kat.cr, Kickasstorrent Very Easily



Torrent Description



La Rosa Bianca - Sophie Scholl (2005)



Titolo originale: Sophie Scholl - Die letzten Tage
Nazionalità: Germania
Anno: 2005
Genere: biografico, drammatico
Regia: Marc Rothemund

Cast:

Julia Jentsch: Sophie Magdalena Scholl
Fabian Hinrichs: Hans Scholl
Gerald Alexander Held: Robert Mohr
Florian Stetter: Christoph Probst
Johanna Gastdorf: Else Gebel
André Hennicke: Roland Freisler
Jörg Hube: Robert Scholl
Maximilian Brückner: Willi Graf
Johannes Suhm: Alexander Schmorell

Sophie Scholl è una studentessa universitaria che vive con il fratello maggiore, Hans Scholl, in un appartamento a Monaco di Baviera durante la seconda guerra mondiale. La disfatta di Stalingrado ha dato un brusco scossone al consenso nazista, e sono in molti ora tra la popolazione tedesca a desiderare la resa.

Sophie aderisce all'associazione studentesca La Rosa Bianca, per la quale nottetempo scrive sui muri frasi contro il nazismo e la guerra, insieme al fratello e agli altri membri dell'organizzazione.

Nel tentativo di distribuire volantini all'università per diffondere le idee del gruppo, viene notata e condotta in una caserma della Gestapo assieme al fratello, dal quale viene peraltro subito separata.

In caserma Sophie viene interrogata dall'investigatore Robert Mohr che, malgrado le resistenze della ragazza, riesce a farle confessare - anche grazie ad un'indagine nel suo appartamento - la sua appartenenza alla "Rosa Bianca", ma non i nomi degli altri membri dell'organizzazione clandestina. Un altro ragazzo della Rosa Bianca viene però trovato e anche lui interrogato.

Poco dopo la firma della confessione, la giovane viene condotta in tribunale, presieduto da Roland Freisler, noto giurista del Terzo Reich, che prima era un commissario sovietico e adesso deve riabilitarsi.

Il processo si rivela una farsa. Condannati a morte, i tre vengono giustiziati con la ghigliottina lo stesso giorno, dopo un ultimo saluto ai genitori, sconvolti ma fieri dell'operato dei figli.






General
Unique ID : 217790662801387116918619415332947949080 (0xA3D8F4B67FBD4B2E92F38BD394E2F618)
Complete name : D:\Da uppare\La.Rosa.Bianca.Sophie.Scholl.2005.BDRip.1080p.ITA.GER.Subs.x264.mkv
Format : Matroska
Format version : Version 2
File size : 9.46 GiB
Duration : 2 h 0 min
Overall bit rate : 11.2 Mb/s
Movie name : La.Rosa.Bianca.Sophie.Scholl.2005.BDRip.1080p.ITA.GER.Subs.x264
Encoded date : UTC 2017-12-11 14:08:40
Writing application : mkvmerge v5.4.0 ('Piper') built on Mar 10 2012 13:34:39
Writing library : libebml v1.2.3 + libmatroska v1.3.0

Video
ID : 1
Format : AVC
Format/Info : Advanced Video Codec
Format profile : [email protected]
Format settings : CABAC / 4 Ref Frames
Format settings, CABAC : Yes
Format settings, RefFrames : 4 frames
Muxing mode : Header stripping
Codec ID : V_MPEG4/ISO/AVC
Duration : 2 h 0 min
Bit rate : 10.4 Mb/s
Width : 1 920 pixels
Height : 1 080 pixels
Display aspect ratio : 16:9
Frame rate mode : Constant
Frame rate : 23.976 FPS
Color space : YUV
Chroma subsampling : 4:2:0
Bit depth : 8 bits
Scan type : Progressive
Bits/(Pixel*Frame) : 0.209
Stream size : 8.52 GiB (90%)
Title : La.Rosa.Bianca.Sophie.Scholl.2005.BDRip.1080p.ITA.GER.Subs.x264
Writing library : x264 core 88 r1471 1144615
Language : German
Default : Yes
Forced : No

Audio #1
ID : 2
Format : AC-3
Format/Info : Audio Coding 3
Muxing mode : Header stripping
Codec ID : A_AC3
Duration : 2 h 0 min
Bit rate mode : Constant
Bit rate : 448 kb/s
Channel(s) : 6 channels
Channel positions : Front: L C R, Side: L R, LFE
Sampling rate : 48.0 kHz
Frame rate : 31.250 FPS (1536 SPF)
Bit depth : 16 bits
Compression mode : Lossy
Stream size : 386 MiB (4%)
Title : AC3 5.1
Language : Italian
Service kind : Complete Main
Default : Yes
Forced : No

Audio #2
ID : 3
Format : AC-3
Format/Info : Audio Coding 3
Muxing mode : Header stripping
Codec ID : A_AC3
Duration : 2 h 0 min
Bit rate mode : Constant
Bit rate : 448 kb/s
Channel(s) : 6 channels
Channel positions : Front: L C R, Side: L R, LFE
Sampling rate : 48.0 kHz
Frame rate : 31.250 FPS (1536 SPF)
Bit depth : 16 bits
Compression mode : Lossy
Stream size : 386 MiB (4%)
Title : AC3 5.1
Language : German
Service kind : Complete Main
Default : No
Forced : No

Text #1
ID : 4
Format : UTF-8
Codec ID : S_TEXT/UTF8
Codec ID/Info : UTF-8 Plain Text
Language : Italian
Default : No
Forced : No

Text #2
ID : 5
Format : UTF-8
Codec ID : S_TEXT/UTF8
Codec ID/Info : UTF-8 Plain Text
Language : German
Default : No
Forced : No







Recently Added Torrents in Movies

Trackers List

tracker name
udp://tracker.opentrackr.org:1337/announce
udp://tracker.leechers-paradise.org:6969/announce
udp://tracker.pirateparty.gr:6969/announce
udp://tracker.coppersurfer.tk:6969/announce
udp://tracker.mg64.net:2710/announce
udp://tracker.zer0day.to:1337/announce

Sharing Widget


Download torrent
9.5 GB
Seeders: 3
Leechers: n/a
La Rosa Bianca - Sophie Scholl (2005), [BDrip 1080p - H264 - Ita Ger Ac3 5 1 - Sub Ita Ger] Drammatico