Trouble Is My Business
Small Business Management Case Study
Loading...
Loading...
Loading...
Loading...

La scelta di Sophie - Sophie's Choice (1982), [XviD - Ita Eng Mp3 - Sub Ita Eng] Drammatico BDrip

Seeders: 2
Leechers: n/a
Completed: n/a

Age: 2 months    Visits: 61    Category: Movies    Size: 1.6 GB

Posted by: Alice1337x    Comments: Read Comments

Info Hash: DB4AB56089982C533049B04C062B116A00B921A8



Now You Can Download Torrents From Kat.cr, Kickasstorrent Very Easily



Torrent Description



La scelta di Sophie (1982)



Titolo originale: Sophie's Choice
Nazionalità: Stati Uniti
Anno: 1982
Genere: drammatico
Regia: Alan J. Pakula

Cast:

Meryl Streep: Sophie Zawistowska
Kevin Kline: Nathan Landau
Peter MacNicol: Stingo
Rita Karin: Yetta
Stephen D. Newman: Larry Landau
Greta Turken: Leslie Lapidus
Josh Mostel: Morris Fink
Marcell Rosenblatt: Astrid Weinstein
Moishe Rosenfeld: sé stesso
Robin Bartlett: Lillian Grossman
John Rothman: bibliotecario
Katharina Thalbach: Wanda
Nedim Prohic: Jozef
Jennifer Lawn: Eva Zawistowska
Adrian Kalitka: Jan Zawistowska

La scelta di Sophie, ebrea ex internata in un campo di sterminio nazista, fu quella di abbandonare al suo destino la figlioletta per salvare se stessa e l'altro figlio, divenendo collaboratrice del comandante del lager di Auschwitz. Una scelta che ha segnato angosciosamente la sua vita, e che racconta, dopo la guerra, a Stingo, uno scrittore coinquilino nella casa in cui abita a New York, che è diventato amico suo e del marito, un geniale ma nevrotico intellettuale. Lo strano ménage a tre continua finché Sophie, dopo essersi concessa allo scrittore innamoratosi di lei, si suicida insieme al marito.




General
Complete name : D:\La.Scelta.di.Sophie.1982.BluRay.ITA.ENG.MP3.Subs.XviD.Aln+AliceTNT.avi
Format : AVI
Format/Info : Audio Video Interleave
File size : 1.55 GiB
Duration : 2 h 31 min
Overall bit rate : 1 470 kb/s
Writing application : VirtualDubMod 1.5.10.2 (build 2542/release)
Writing library : VirtualDubMod build 2542/release

Video
ID : 0
Format : MPEG-4 Visual
Format profile : Advanced [email protected]
Format settings, BVOP : 1
Format settings, QPel : No
Format settings, GMC : No warppoints
Format settings, Matrix : Default (MPEG)
Codec ID : XVID
Codec ID/Hint : XviD
Duration : 2 h 31 min
Bit rate : 1 200 kb/s
Width : 624 pixels
Height : 336 pixels
Display aspect ratio : 1.85:1
Frame rate : 23.976 (24000/1001) FPS
Color space : YUV
Chroma subsampling : 4:2:0
Bit depth : 8 bits
Scan type : Progressive
Compression mode : Lossy
Bits/(Pixel*Frame) : 0.239
Stream size : 1.27 GiB (82%)
Writing library : XviD 67

Audio #1
ID : 1
Format : MPEG Audio
Format version : Version 1
Format profile : Layer 3
Mode : Joint stereo
Mode extension : MS Stereo
Codec ID : 55
Codec ID/Hint : MP3
Duration : 2 h 31 min
Bit rate mode : Constant
Bit rate : 128 kb/s
Channel(s) : 2 channels
Sampling rate : 48.0 kHz
Compression mode : Lossy
Stream size : 138 MiB (9%)
Alignment : Aligned on interleaves
Interleave, duration : 42 ms (1.00 video frame)
Interleave, preload duration : 504 ms
Title : Italian
Writing library : LAME3.99r
Encoding settings : -m j -V 4 -q 2 -lowpass 17 -b 128

Audio #2
ID : 2
Format : MPEG Audio
Format version : Version 1
Format profile : Layer 3
Mode : Joint stereo
Mode extension : MS Stereo
Codec ID : 55
Codec ID/Hint : MP3
Duration : 2 h 31 min
Bit rate mode : Constant
Bit rate : 128 kb/s
Channel(s) : 2 channels
Sampling rate : 48.0 kHz
Compression mode : Lossy
Stream size : 138 MiB (9%)
Alignment : Aligned on interleaves
Interleave, duration : 42 ms (1.00 video frame)
Interleave, preload duration : 504 ms
Title : English
Writing library : LAME3.99r
Encoding settings : -m j -V 4 -q 2 -lowpass 17 -b 128

General
Complete name : D:\La.Scelta.di.Sophie.1982.BluRay.ITA.ENG.MP3.Subs.XviD.Aln+AliceTNT.en.srt
Format : SubRip
File size : 136 KiB

Text
Format : SubRip
Compression mode : Lossless

General
Complete name : D:\La.Scelta.di.Sophie.1982.BluRay.ITA.ENG.MP3.Subs.XviD.Aln+AliceTNT.it.srt
Format : SubRip
File size : 116 KiB

Text
Format : SubRip
Compression mode : Lossless

General
Complete name : D:\La.Scelta.di.Sophie.1982.BluRay.ITA.ENG.MP3.Subs.XviD.Aln+AliceTNT.srt
Format : SubRip
File size : 19.6 KiB

Text
Format : SubRip
Compression mode : Lossless

Grazie ad Aln, autore del rip a 1080p; io ho solo ridotto la risoluzione.








Recently Added Torrents in Movies

Trackers List

tracker name
udp://tracker.opentrackr.org:1337/announce
udp://tracker.leechers-paradise.org:6969/announce
udp://tracker.pirateparty.gr:6969/announce
udp://tracker.coppersurfer.tk:6969/announce
udp://tracker.mg64.net:2710/announce
udp://tracker.zer0day.to:1337/announce

Sharing Widget


Download torrent
1.6 GB
Seeders: 2
Leechers: n/a
La scelta di Sophie - Sophie's Choice (1982), [XviD - Ita Eng Mp3 - Sub Ita Eng] Drammatico BDrip