חדשות האתר
Xem chương
Loading...
Loading...
Loading...

La scomparsa di Alice Creed (2009), [XviD - Ita Ac3 5 1] BDRip by TRL - thriller

Seeders: 1
Leechers: 2
Completed: 26

Age: 2 months    Visits: 85    Category: Movies    Size: 1.3 GB

Posted by: Alice1337x    Comments: Read Comments

Info Hash: 5CB67EF924DD30DB40DE2D1205A242168494687D



Now You Can Download Torrents From Kat.cr, Kickasstorrent Very Easily



Torrent Description



La scomparsa di Alice Creed (2009)



Titolo originale: The Disappearance of Alice Creed
Nazionalità: Regno Unito
Anno: 2009
Genere: thriller
Regia: J Blakeson

Cast:

Gemma Arterton: Alice Creed
Martin Compston: Danny
Eddie Marsan: Vic

Due uomini, un ventenne di nome Danny e un quarantenne di nome Vic, entrambi ex-detenuti, insonorizzano completamente un appartamento trasformandolo in una prigione. Quindi si preparano a rapire, allo scopo di ottenere un riscatto, Alice Creed, la bella figlia di un ricco uomo d'affari. Riescono a sequestrare la ragazza e a condurla nell'appartamento, dove viene rinchiusa in una stanza e legata ad un letto, ma, pur avendo pianificato tutto nei minimi dettagli, Danny e Vic dovranno fare i conti con un'inaspettata reazione della ragazza che farà naufragare i loro loschi piani. La ragazza, infatti, si dimostra tutt'altro che arrendevole, cercando in tutti i modi di non farsi sopraffare dai rapitori.

Alice, infatti, in seguito a un susseguirsi di colpi di scena, scopre che uno dei due sequestratori, che le si sono sempre presentati con un passamontagna, è Danny, il ragazzo con cui ha una relazione. Danny le propone di fingersi spaventata per poi, alla fine di tutto, scappare coi soldi del riscatto. Danny ha però una relazione anche con Vic (era stato grazie all'ascendente su di lui che l'aveva convinto a rapire proprio Alice). A poco a poco il piano si sgretola e i due rapitori si uccidono a vicenda, mentre Alice riesce finalmente a fuggire.





General
Complete name : D:\Da uppare\La.Scomparsa.Di.Alice.Creed.2009.iTALiAN.BDRip.XviD-TRL.avi
Format : AVI
Format/Info : Audio Video Interleave
File size : 1.32 GiB
Duration : 1 h 40 min
Overall bit rate : 1 889 kb/s
Writing application : VirtualDubMod 1.5.10.2 (build 2540/release)
Writing library : VirtualDub build 32842/release

Video
ID : 0
Format : MPEG-4 Visual
Format profile : Advanced [email protected]
Format settings, BVOP : 1
Format settings, QPel : No
Format settings, GMC : No warppoints
Format settings, Matrix : Default (MPEG)
Codec ID : XVID
Codec ID/Hint : XviD
Duration : 1 h 40 min
Bit rate : 1 495 kb/s
Width : 656 pixels
Height : 272 pixels
Display aspect ratio : 2.40:1
Frame rate : 23.976 (24000/1001) FPS
Color space : YUV
Chroma subsampling : 4:2:0
Bit depth : 8 bits
Scan type : Progressive
Compression mode : Lossy
Bits/(Pixel*Frame) : 0.350
Stream size : 1.05 GiB (79%)
Writing library : XviD 1.2.1 (UTC 2008-12-04)

Audio
ID : 1
Format : AC-3
Format/Info : Audio Coding 3
Format settings, Endianness : Big
Codec ID : 2000
Duration : 1 h 40 min
Bit rate mode : Constant
Bit rate : 384 kb/s
Channel(s) : 6 channels
Channel positions : Front: L C R, Side: L R, LFE
Sampling rate : 48.0 kHz
Frame rate : 31.250 FPS (1536 SPF)
Bit depth : 16 bits
Compression mode : Lossy
Stream size : 275 MiB (20%)
Alignment : Aligned on interleaves
Interleave, duration : 42 ms (1.00 video frame)
Interleave, preload duration : 512 ms
Service kind : Complete Main









Recently Added Torrents in Movies

Trackers List

tracker name
udp://tracker.opentrackr.org:1337/announce
udp://tracker.leechers-paradise.org:6969/announce
udp://tracker.pirateparty.gr:6969/announce
udp://tracker.coppersurfer.tk:6969/announce
udp://tracker.mg64.net:2710/announce
udp://tracker.zer0day.to:1337/announce

Sharing Widget


Download torrent
1.3 GB
Seeders: 1
Leechers: 2
La scomparsa di Alice Creed (2009), [XviD - Ita Ac3 5 1] BDRip by TRL - thriller