Computer Technician - 503 Words
Little Women II
Loading...
Loading...
Loading...

Margaret (2011), [BDrip 1080p - H264 - Ita Eng Ac3 5 1 - Sub Ita Eng] drammatico

Seeders: 1
Leechers: n/a
Completed: 14

Age: 2 months    Visits: 52    Category: Movies    Size: 10.2 GB

Posted by: Alice1337x    Comments: Read Comments

Info Hash: 30C2B111E8D32AC76A86FFBBE058194B57FE7F00



Now You Can Download Torrents From Kat.cr, Kickasstorrent Very Easily



Torrent Description



Margaret (2011)



Titolo originale: Margaret
Nazionalità: Stati Uniti
Anno: 2011
Genere: drammatico
Regia: Kenneth Lonergan

Cast:

Anna Paquin: Lisa Cohen
J. Smith-Cameron: Joan Cohen
Matt Damon: Aaron Caije
Mark Ruffalo: Jason "Maretti" Berstone
Matthew Broderick: John Andrew Van Tassel
Jean Reno: Ramon Cameron
Allison Janney: Monica Patterson
Olivia Thirlby: Monica Sloane
Kieran Culkin: Paul Hirsch
Jeannie Berlin: Kellie Burnett
John Gallagher Jr.: Darren Rodifer
Rosemarie DeWitt: Margaret Marretti
Kenneth Lonergan: Karl
Cyrus Hernstadt: Curtis
Michael Ealy: Dave
Matt Bush: Kurt Masur
Sarah Steele: Becky
Betsy Aidem: Abigail
Stephen Adly Guirgis: Mitchell
Jake O'Connor: David
David Mazzucchi: Lionel
Hina Abdullah: Angie
Jerry Matz: prof. Klein
Jonathan Hadary: Deutsch
Josh Hamilton: Victor
Adam LeFevre: Rob
Kevin Geer: detective

La studentessa diciassettenne Lisa Cohen ha assistito, ed involontariamente causato, un incidente stradale a Manhattan, dove una donna è stata investita da un autobus. Già in preda ai turbamenti adolescenziali, Lisa si ritrova a vivere i sensi di colpa e le frustrazioni degli ultimi eventi, rimanendo coinvolta, in quanto testimone, di una causa contro il conducente dell'autobus.






General
Unique ID : 233327073958681954044902729101888853077 (0xAF8928EC68EC2172AE3E0CC5F4EE1455)
Complete name : D:\Da uppare\Margaret.2011.BDRip.1080p.ITA.ENG.Subs.x264.mkv
Format : Matroska
Format version : Version 2
File size : 10.2 GiB
Duration : 2 h 29 min
Overall bit rate : 9 698 kb/s
Movie name : Margaret.2011.BDRip.1080p.ITA.ENG.Subs.x264
Encoded date : UTC 2017-12-10 14:15:08
Writing application : mkvmerge v5.4.0 ('Piper') built on Mar 10 2012 13:34:39
Writing library : libebml v1.2.3 + libmatroska v1.3.0

Video
ID : 1
Format : AVC
Format/Info : Advanced Video Codec
Format profile : [email protected]
Format settings : CABAC / 4 Ref Frames
Format settings, CABAC : Yes
Format settings, RefFrames : 4 frames
Muxing mode : Header stripping
Codec ID : V_MPEG4/ISO/AVC
Duration : 2 h 29 min
Bit rate : 8 932 kb/s
Width : 1 920 pixels
Height : 1 040 pixels
Display aspect ratio : 1.85:1
Frame rate mode : Constant
Frame rate : 23.976 FPS
Color space : YUV
Chroma subsampling : 4:2:0
Bit depth : 8 bits
Scan type : Progressive
Bits/(Pixel*Frame) : 0.187
Stream size : 9.15 GiB (90%)
Title : Margaret.2011.BDRip.1080p.ITA.ENG.Subs.x264
Writing library : x264 core 125 r2200 999b753
Language : English
Default : Yes
Forced : No

Audio #1
ID : 2
Format : AC-3
Format/Info : Audio Coding 3
Muxing mode : Header stripping
Codec ID : A_AC3
Duration : 2 h 29 min
Bit rate mode : Constant
Bit rate : 384 kb/s
Channel(s) : 6 channels
Channel positions : Front: L C R, Side: L R, LFE
Sampling rate : 48.0 kHz
Frame rate : 31.250 FPS (1536 SPF)
Bit depth : 16 bits
Compression mode : Lossy
Stream size : 412 MiB (4%)
Title : AC3 5.1
Language : Italian
Service kind : Complete Main
Default : Yes
Forced : No

Audio #2
ID : 3
Format : AC-3
Format/Info : Audio Coding 3
Muxing mode : Header stripping
Codec ID : A_AC3
Duration : 2 h 29 min
Bit rate mode : Constant
Bit rate : 384 kb/s
Channel(s) : 6 channels
Channel positions : Front: L C R, Side: L R, LFE
Sampling rate : 48.0 kHz
Frame rate : 31.250 FPS (1536 SPF)
Bit depth : 16 bits
Compression mode : Lossy
Stream size : 412 MiB (4%)
Title : AC3 5.1
Language : English
Service kind : Complete Main
Default : No
Forced : No

Text #1
ID : 4
Format : UTF-8
Codec ID : S_TEXT/UTF8
Codec ID/Info : UTF-8 Plain Text
Title : Forced
Language : Italian
Default : Yes
Forced : Yes

Text #2
ID : 5
Format : UTF-8
Codec ID : S_TEXT/UTF8
Codec ID/Info : UTF-8 Plain Text
Language : Italian
Default : No
Forced : No

Text #3
ID : 6
Format : UTF-8
Codec ID : S_TEXT/UTF8
Codec ID/Info : UTF-8 Plain Text
Language : English
Default : No
Forced : No

Menu
00:00:00.000 : en:00:00:00.000
00:03:22.786 : en:00:03:22.786
00:07:26.821 : en:00:07:26.821
00:11:03.496 : en:00:11:03.496
00:18:16.554 : en:00:18:16.554
00:20:57.339 : en:00:20:57.339
00:23:53.515 : en:00:23:53.515
00:28:26.079 : en:00:28:26.079
00:32:19.688 : en:00:32:19.688
00:36:02.619 : en:00:36:02.619
00:40:28.009 : en:00:40:28.009
00:46:35.626 : en:00:46:35.626
00:55:33.038 : en:00:55:33.038
00:57:45.295 : en:00:57:45.295
01:03:12.288 : en:01:03:12.288
01:08:06.207 : en:01:08:06.207
01:16:32.546 : en:01:16:32.546
01:19:58.752 : en:01:19:58.752
01:23:58.325 : en:01:23:58.325
01:27:29.494 : en:01:27:29.494
01:33:12.587 : en:01:33:12.587
01:36:44.507 : en:01:36:44.507
01:40:20.389 : en:01:40:20.389
01:46:37.766 : en:01:46:37.766
01:50:50.769 : en:01:50:50.769
01:53:29.052 : en:01:53:29.052
01:57:58.488 : en:01:57:58.488
02:02:30.552 : en:02:02:30.552
02:05:55.798 : en:02:05:55.798
02:07:25.263 : en:02:07:25.263
02:09:19.251 : en:02:09:19.251
02:12:54.508 : en:02:12:54.508
02:18:00.147 : en:02:18:00.147
02:19:47.671 : en:02:19:47.671
02:21:30.691 : en:02:21:30.691
02:26:52.804 : en:02:26:52.804







Recently Added Torrents in Movies

Trackers List

tracker name
udp://tracker.opentrackr.org:1337/announce
udp://tracker.leechers-paradise.org:6969/announce
udp://tracker.pirateparty.gr:6969/announce
udp://tracker.coppersurfer.tk:6969/announce
udp://tracker.mg64.net:2710/announce
udp://tracker.zer0day.to:1337/announce

Sharing Widget


Download torrent
10.2 GB
Seeders: 1
Leechers: n/a
Margaret (2011), [BDrip 1080p - H264 - Ita Eng Ac3 5 1 - Sub Ita Eng] drammatico