Winner (2017) Telugu 720p WEBHD 1GB,473 MB Free Download
Download
Loading...
Loading...
Loading...

Master Of Photography S01e01-08, [SATRip - H264 - Ita Aac] talent show ADE CreW

Seeders: 2
Leechers: n/a
Completed: n/a

Age: 2 months    Visits: 71    Category: TV    Size: 3.1 GB

Posted by: Alice1337x    Comments: Read Comments

Info Hash: A8285E6FC2B78DE7155A448A34E37FFD61BB214C



Now You Can Download Torrents From Kat.cr, Kickasstorrent Very Easily



Torrent Description



Master Of Photography S01e01-08





Anno: 2016
Genere: talent show
Regia: Giuseppe Bianchi

Master of Photography è un talent show europeo incentrato sul mondo della fotografia.

Il programma ha debuttato il 21 luglio 2016, trasmesso in contemporanea in cinque nazioni: Germania, Italia, Regno Unito, Austria e Irlanda. In Italia viene trasmesso su Sky Arte. Il format nasce da un'idea di Roberto Pisoni, direttore di Sky Arte, assieme Barbara Frigerio e Mario Paloschi.

La prima edizione è stata vinta dal fotoreporter italiano Gabriele Micalizzi.

12 fotografi professioni e amatoriali, di differenti nazionalità europee, si sfidano in una competizione incentrata sulla fotografia, per contendersi il titolo di "Master of Photography d'Europa", aggiudicarsi 150.000 euro e avere la possibilità di esporre i propri scatti in un'importante mostra. Il programma è condotto dall'attrice e modella Isabella Rossellini e i 12 partecipanti vengono giudicati da tre professionisti del settore come Oliviero Toscani, Rut Blees Luxemburg e Simon Frederick.

Nel corso delle otto puntate i concorrenti dovranno affrontare diversi temi e generi fotografici, come la street photography, il nudo, l'autoritratto e la fotografia paesaggistica.

Il programma è realizzato interamente in inglese e poi doppiato per l'edizione italiana e tedesca. Nell'edizione italiana Isabella Rossellini e Oliviero Toscani doppiano se stessi, mentre Rut Blees Luxemburg e Simon Frederick sono doppiati da Carolina Zaccarini e Mimmo Strati.






General
Unique ID : 177352610174241028368253445295293981825 (0x856CDEC9AF8F05A989C53422F63DE481)
Complete name : D:\Incoming\Master of photography\Master.Of.Photography.1x01.Roma.La.Grande.Bellezza.iTA.HDTVRip.x264-ADE.CreW.mkv
Format : Matroska
Format version : Version 4 / Version 2
File size : 421 MiB
Duration : 50 min
Overall bit rate : 1 164 kb/s
Encoded date : UTC 2016-08-07 20:08:03
Writing application : mkvmerge v9.3.1 ('Mask Machine') 64bit
Writing library : libebml v1.3.4 + libmatroska v1.4.5

Video
ID : 1
Format : AVC
Format/Info : Advanced Video Codec
Format profile : [email protected]
Format settings, CABAC : Yes
Format settings, ReFrames : 7 frames
Codec ID : V_MPEG4/ISO/AVC
Duration : 50 min
Bit rate : 1 050 kb/s
Width : 720 pixels
Height : 404 pixels
Display aspect ratio : 16:9
Frame rate mode : Constant
Frame rate : 25.000 FPS
Color space : YUV
Chroma subsampling : 4:2:0
Bit depth : 8 bits
Scan type : Progressive
Bits/(Pixel*Frame) : 0.144
Stream size : 380 MiB (90%)
Writing library : x264 core 146 r2538 121396c
Default : Yes
Forced : No

Audio
ID : 2
Format : AAC
Format/Info : Advanced Audio Codec
Format profile : LC
Codec ID : A_AAC
Duration : 50 min
Bit rate : 111 kb/s
Channel(s) : 2 channels
Channel positions : Front: L R
Sampling rate : 48.0 kHz
Frame rate : 46.875 FPS (1024 spf)
Compression mode : Lossy
Delay relative to video : 9 ms
Stream size : 40.2 MiB (10%)
Default : Yes
Forced : No





Grazie alla ADE.CreW per il rip





Recently Added Torrents in TV

Trackers List

tracker name
udp://tracker.opentrackr.org:1337/announce
udp://tracker.leechers-paradise.org:6969/announce
udp://tracker.pirateparty.gr:6969/announce
udp://tracker.coppersurfer.tk:6969/announce
udp://tracker.mg64.net:2710/announce
udp://tracker.zer0day.to:1337/announce

Sharing Widget


Download torrent
3.1 GB
Seeders: 2
Leechers: n/a
Master Of Photography S01e01-08, [SATRip - H264 - Ita Aac] talent show ADE CreW