IDM UltraCompare Professional 18 00 0 59 + Crack [CracksNow]
♬ But Thou Didst Not Leave His Soul In Hell
Loading...
Loading...
Loading...

Mazinger Z - Infinity - Mazinga Z - Infinity (2017) H264 italian Ac3-5 1 sub eng MIRCrew

Seeders: 14
Leechers: 3
Completed: 7

Age: 4 days    Visits: 34    Category: Anime    Size: 1.1 GB

Posted by: robbyrs    Comments: Read Comments

Info Hash: 900A792AFFB9D0C8E3C266C985161F96B646F092



Now You Can Download Torrents From Kat.cr, Kickasstorrent Very Easily



Torrent Description




 Mazinger Z - Infinity - Mazinga Z - Infinity (2017).H264.italian.Ac3-5.1.sub.eng.MIRCrew


NO FOUND ONLY ORIGINAL RELEASE



My release is always in double track audio italian and Original audio
for select it use VLC or dvd player home
not use wmp

ENGLISH SUBTUTLE INSIDE











Titolo originale Mazinger Z / INFINITY
Gekijoban Majinga Zetto / Infiniti
Lingua originale giapponese
Paese di produzione Giappone
Anno 2017
Durata 95 min
Genere animazione, fantascienza, azione
Regia Junji Shimizu
Sceneggiatura Takahiro Ozawa
Casa di produzione Toei Animation
Distribuzione (Italia) Lucky Red
Musiche Toshiyuki Watanabe
Character design Hiroya Iijima
Sfondi Makoto Ujiie



Doppiatori italiani

Gianfranco Miranda: Koji Kabuto
Gaia Bolognesi: Sayaka Yumi
Joy Saltarelli: Lisa
Simone D'Andrea: Tetsuya Tsurugi
Giulia Santilli: Jun Hono
Davide Perino: Shiro Kabuto
Rodolfo Traversa: Gennosuke Yumi
Pietro Biondi: Dott. Inferno
Roberto Chevalier: Conte Blocken
Mario Cordova: Barone Ashura (uomo)
Roberta Pellini: Barone Ashura (donna)
Marco Mete: Boss
Pino Insegno: Comandante
Massimiliano Alto: Mucha
Alessio Puccio: Nuke
Carlo Valli: Dott. Sewashi
Oliviero Dinelli: Dott. Nossori



Dieci anni dopo la sconfitta dell'Impero Sotterraneo di Mikene, la Terra e tutti i suoi abitanti hanno finalmente trovato la pace, grazie anche all'energia fotonica, una fonte energetica pulita e praticamente infinita.



Ten years ago, the villainous scientist Dr. Hell led his wicked followers, known as the Underground Empire, in a struggle to destroy all of humanity. It was against these forces that the young hero Koji Kabuto fought, piloting the legendary super robot "Mazinger Z." Koji's victory stopped Dr. Hell's evil plan and returned peace to the Earth











[spoiler]
General
Unique ID : 313629255118762946923398664118524622005 (0xEBF2CC218C681FF61AAB73B06C26B4B5)
Complete name : C:\Users\robby\Desktop\Mazinga Z Infinity (2017).H264.ita.sub.eng-MIRCrew\Mazinga Z Infinity (2017).H264.ita.sub.eng-MIRCrew.mkv
Format : Matroska
Format version : Version 2
File size : 1.11 GiB
Duration : 1h 34mn
Overall bit rate : 1 671 Kbps
Movie name : MIRCrew
Encoded date : UTC 2018-04-10 07:08:05
Writing application : Lavf54.63.100
Writing library : Lavf54.63.100
COPYRIGHT : robbyrs-Il Corsaronero

Video
ID : 1
Format : AVC
Format/Info : Advanced Video Codec
Format profile : [email protected]
Format settings, CABAC : Yes
Format settings, ReFrames : 2 frames
Codec ID : V_MPEG4/ISO/AVC
Duration : 1h 34mn
Bit rate : 1 280 Kbps
Width : 720 pixels
Height : 404 pixels
Display aspect ratio : 16:9
Frame rate mode : Variable
Frame rate : 24.000 fps
Color space : YUV
Chroma subsampling : 4:2:0
Bit depth : 8 bits
Scan type : Progressive
Bits/(Pixel*Frame) : 0.183
Stream size : 851 MiB (75%)
Writing library : x264 core 130 r2273
Encoding settings : cabac=1 / ref=2 / deblock=1:0:0 / analyse=0x1:0x131 / me=hex / subme=7 / psy=1 / psy_rd=1.00:0.00 / mixed_ref=0 / me_range=16 / chroma_me=1 / trellis=1 / 8x8dct=0 / cqm=0 / deadzone=21,11 / fast_pskip=1 / chroma_qp_offset=-2 / threads=3 / lookahead_threads=1 / sliced_threads=0 / nr=0 / decimate=1 / interlaced=0 / bluray_compat=0 / constrained_intra=0 / bframes=3 / b_pyramid=0 / b_adapt=1 / b_bias=0 / direct=3 / weightb=1 / open_gop=0 / weightp=2 / keyint=240 / keyint_min=24 / scenecut=40 / intra_refresh=0 / rc_lookahead=40 / rc=abr / mbtree=1 / bitrate=1280 / ratetol=1.0 / qcomp=0.60 / qpmin=10 / qpmax=69 / qpstep=4 / vbv_maxrate=24000 / vbv_bufsize=24000 / nal_hrd=none / ip_ratio=1.40 / aq=1:1.00
Language : Italian
Default : Yes
Forced : No
DURATION : 01:34:58.334000000
NUMBER_OF_FRAMES : 136760
NUMBER_OF_BYTES : 4890586814
_STATISTICS_WRITING_APP : mkvmerge v19.0.0 ('Brave Captain') 32-bit
_STATISTICS_WRITING_DATE_UTC : 2018-04-06 19:23:12
_STATISTICS_TAGS : BPS DURATION NUMBER_OF_FRAMES NUMBER_OF_BYTES

Audio
ID : 2
Format : AC-3
Format/Info : Audio Coding 3
Mode extension : CM (complete main)
Codec ID : A_AC3
Duration : 1h 34mn
Bit rate mode : Constant
Bit rate : 384 Kbps
Channel(s) : 6 channels
Channel positions : Front: L C R, Side: L R, LFE
Sampling rate : 48.0 KHz
Bit depth : 16 bits
Compression mode : Lossy
Delay relative to video : 1mn 5s
Stream size : 261 MiB (23%)
Language : Italian
Default : Yes
Forced : No
DURATION : 01:34:58.240000000
NUMBER_OF_FRAMES : 178070
NUMBER_OF_BYTES : 455859200
_STATISTICS_WRITING_APP : mkvmerge v19.0.0 ('Brave Captain') 32-bit
_STATISTICS_WRITING_DATE_UTC : 2018-04-06 19:23:12
_STATISTICS_TAGS : BPS DURATION NUMBER_OF_FRAMES NUMBER_OF_BYTES

Menu
00:00:00.000 : :00:00:00.000
00:16:44.500 : :00:16:44.500
00:33:00.000 : :00:33:00.000
00:47:42.250 : :00:47:42.250
01:02:11.708 : :01:02:11.708
01:17:51.167 : :01:17:51.167



[/spoiler]







Recently Added Torrents in Anime

Trackers List

tracker name
udp://tracker.opentrackr.org:1337/announce
udp://tracker.leechers-paradise.org:6969/announce
udp://tracker.pirateparty.gr:6969/announce
udp://tracker.coppersurfer.tk:6969/announce
udp://tracker.mg64.net:2710/announce
udp://tracker.zer0day.to:1337/announce

Sharing Widget


Download torrent
1.1 GB
Seeders: 14
Leechers: 3
Mazinger Z - Infinity - Mazinga Z - Infinity (2017) H264 italian Ac3-5 1 sub eng MIRCrew