[HorribleSubs] Darling in the FranXX - 13 [480p].mkv
Episode 240
Loading...
Loading...
Loading...

Peaky Blinders S02e01-06, [Mux - XviD - Ita Eng Mp3 - Sub Ita Eng] BDMux

Seeders: 4
Leechers: 1
Completed: n/a

Age: 2 months    Visits: 73    Category: TV    Size: 2.6 GB

Posted by: Alice1337x    Comments: Read Comments

Info Hash: D25D69D71192F7E2E832B3260A59C88198A40591



Now You Can Download Torrents From Kat.cr, Kickasstorrent Very Easily



Torrent Description



Peaky Blinders S02e01-06





Anno: 2013 – in produzione
Genere: drammatico, storico

Cast:
Cillian Murphy: Tommy Shelby
Sam Neill: C.I. Campbell
Helen McCrory: Polly Gray
Paul Anderson: Arthur Shelby
Iddo Goldberg: Freddie Thorne
Annabelle Wallis: Grace Burgess
Sophie Rundle: Ada Shelby
Joe Cole: John Shelby
Ned Dennehy: Charlie Strong
Tom Hardy: Alfie Solomons
Charlotte Riley: May Carleton
Noah Taylor: Darby Sabini
Aimee-Ffion Edwards: Esme Shelby



La storia inizia nel 1919 nella povertà della Birmingham del dopoguerra dove tutti lottano per sopravvivere ad un periodo particolarmente difficile dal punto di vista storico ed economico. La storia è ambientata nel quartiere di Small Heath e si focalizza particolarmente sulla famiglia Shelby, cui capofamiglia, è anche il boss della gang detta "Peaky Blinders", dall'usanza di nascondere una lametta nel risvolto dei cappelli, la quale poteva essere utilizzata anche come arma.

La leadership di Tommy Shelby è messa a dura prova dall'arrivo in città da Belfast dello spietato poliziotto Campbell, deciso a ripulire il marcio e la delinquenza a tutti i costi, e da una donna, Grace Burgess, dal passato misterioso.






General
Complete name : D:\Downloads\Peaky Blinders S02e01-06\Peaky.Blinders.2x01.ITA.ENG.BDMux.XviD.avi
Format : AVI
Format/Info : Audio Video Interleave
File size : 432 MiB
Duration : 58 min 55 s
Overall bit rate mode : Variable
Overall bit rate : 1 026 kb/s
Writing application : VirtualDubMod 1.5.10.2 (build 2542/release)
Writing library : VirtualDubMod build 2542/release

Video
ID : 0
Format : MPEG-4 Visual
Format profile : Advanced [email protected]
Format settings, BVOP : 1
Format settings, QPel : No
Format settings, GMC : No warppoints
Format settings, Matrix : Default (MPEG)
Codec ID : XVID
Codec ID/Hint : XviD
Duration : 58 min 55 s
Bit rate : 773 kb/s
Width : 624 pixels
Height : 352 pixels
Display aspect ratio : 16:9
Frame rate : 25.000 FPS
Color space : YUV
Chroma subsampling : 4:2:0
Bit depth : 8 bits
Scan type : Progressive
Compression mode : Lossy
Bits/(Pixel*Frame) : 0.141
Stream size : 326 MiB (75%)
Writing library : XviD 67

Audio #1
ID : 1
Format : MPEG Audio
Format version : Version 1
Format profile : Layer 3
Mode : Joint stereo
Mode extension : MS Stereo
Codec ID : 55
Codec ID/Hint : MP3
Duration : 58 min 55 s
Bit rate mode : Constant
Bit rate : 128 kb/s
Channel(s) : 2 channels
Sampling rate : 48.0 kHz
Compression mode : Lossy
Stream size : 53.9 MiB (12%)
Alignment : Aligned on interleaves
Interleave, duration : 40 ms (1.00 video frame)
Interleave, preload duration : 504 ms
Title : Italian
Writing library : LAME3.99r
Encoding settings : -m j -V 4 -q 2 -lowpass 17 -b 128

Audio #2
ID : 2
Format : MPEG Audio
Format version : Version 1
Format profile : Layer 3
Codec ID : 55
Codec ID/Hint : MP3
Duration : 58 min 55 s
Bit rate mode : Variable
Bit rate : 112 kb/s
Channel(s) : 2 channels
Sampling rate : 48.0 kHz
Compression mode : Lossy
Stream size : 45.0 MiB (10%)
Alignment : Aligned on interleaves
Interleave, duration : 24 ms (0.60 video frame)
Interleave, preload duration : 444 ms
Title : English
Writing library : LAME3.99r
Encoding settings : -m s -V 4 -q 3 -lowpass 15.6 --abr 112

General
Complete name : D:\Downloads\Peaky Blinders S02e01-06\Peaky.Blinders.2x01.ITA.ENG.BDMux.XviD.en.srt
Format : SubRip
File size : 46.0 KiB

Text
Format : SubRip
Compression mode : Lossless

General
Complete name : D:\Downloads\Peaky Blinders S02e01-06\Peaky.Blinders.2x01.ITA.ENG.BDMux.XviD.it.srt
Format : SubRip
File size : 50.3 KiB

Text
Format : SubRip
Compression mode : Lossless

General
Complete name : D:\Downloads\Peaky Blinders S02e01-06\Peaky.Blinders.2x01.ITA.ENG.BDMux.XviD.srt
Format : SubRip
File size : 798 Bytes

Text
Format : SubRip
Compression mode : Lossless





Grazie alla crew iLLiCiT: ho rubato la loro 720p e l'ho trasformata in una versione più leggera

Grazie a belgarath per le rose rosse






Recently Added Torrents in TV

Trackers List

tracker name
udp://tracker.opentrackr.org:1337/announce
udp://tracker.leechers-paradise.org:6969/announce
udp://tracker.pirateparty.gr:6969/announce
udp://tracker.coppersurfer.tk:6969/announce
udp://tracker.mg64.net:2710/announce
udp://tracker.zer0day.to:1337/announce

Sharing Widget


Download torrent
2.6 GB
Seeders: 4
Leechers: 1
Peaky Blinders S02e01-06, [Mux - XviD - Ita Eng Mp3 - Sub Ita Eng] BDMux