uTorrent 3.4.9 Pro Build 42923 Multilingual Incl Pro Pack Crack + Portable.torrent
Saga Rambo BluRay 1080p
Loading...
Loading...
Loading...

Rideshare 2018 HDRip x264 AAC [MW]

Seeders: 1
Leechers: 3
Completed: 2

Age: 1 hour    Visits: 10    Category: Movies    Size: 773.6 MB

Posted by: moviezworldz    Comments: Read Comments

Info Hash: 7E201F811CEF9B9A42CF89B00693DBEC433D2CA4



Now You Can Download Torrents From Kat.cr, Kickasstorrent Very Easily



Torrent Description







General
Format : Matroska
Format version : Version 4 / Version 2
File size : 774 MiB
Duration : 1 h 42 min
Overall bit rate : 1 059 kb/s

Video
ID : 1
Format : AVC
Format/Info : Advanced Video Codec
Format profile : [email protected]
Format settings : CABAC / 4 Ref Frames
Format settings, CABAC : Yes
Format settings, RefFrames : 4 frames
Codec ID : V_MPEG4/ISO/AVC
Duration : 1 h 42 min
Bit rate : 1 000 kb/s
Width : 714 pixels
Height : 304 pixels
Display aspect ratio : 2.35:1
Frame rate mode : Constant
Frame rate : 23.976 (24000/1001) FPS
Color space : YUV
Chroma subsampling : 4:2:0
Bit depth : 8 bits
Scan type : Progressive
Bits/(Pixel*Frame) : 0.192
Stream size : 727 MiB (94%)
Writing library : x264 core 155 r2893 b00bcaf
Default : Yes
Forced : No

Audio
ID : 2
Format : AAC
Format/Info : Advanced Audio Codec
Format profile : HE-AAC / LC
Format settings : Explicit
Codec ID : A_AAC-2
Duration : 1 h 42 min
Bit rate : 62.7 kb/s
Channel(s) : 2 channels
Channel positions : Front: L R
Sampling rate : 48.0 kHz / 24.0 kHz
Frame rate : 23.438 FPS (1024 SPF)
Compression mode : Lossy
Stream size : 45.8 MiB (6%)
Default : Yes
Forced : No
















Recently Added Torrents in Movies

Trackers List

tracker name
udp://tracker.opentrackr.org:1337/announce
udp://tracker.leechers-paradise.org:6969/announce
udp://tracker.pirateparty.gr:6969/announce
udp://tracker.coppersurfer.tk:6969/announce
udp://tracker.mg64.net:2710/announce
udp://tracker.zer0day.to:1337/announce

Sharing Widget


Download torrent
773.6 MB
Seeders: 1
Leechers: 3
Rideshare 2018 HDRip x264 AAC [MW]