[Sub English]
999 Nụ Hôn Bá Đạo Của Nam Thần – Chap 28
Loading...
Loading...
Loading...
Loading...

Still Alice (2014), [BDmux 1080p - H264 - Ita Ac3 Eng Dts 5 1 - Sub Ita Eng] Drammatico by TRL

Seeders: 2
Leechers: n/a
Completed: 1

Age: 2 months    Visits: 71    Category: Movies    Size: 7.7 GB

Posted by: Alice1337x    Comments: Read Comments

Info Hash: BA6FA92B6CA6B054759317630A4F74E62D2432F5



Now You Can Download Torrents From Kat.cr, Kickasstorrent Very Easily



Torrent Description



Still Alice (2014)



Titolo originale: Still Alice
Nazionalità: Stati Uniti d'America
Anno: 2014
Genere: drammatico
Regia: Richard Glatzer, Wash Westmoreland

Cast
Julianne Moore: Alice Howland
Kristen Stewart: Lydia Howland
Kate Bosworth: Anna Howland
Alec Baldwin: Dott. John Howland
Hunter Parrish: Tom Howland
Shane McRae: Charlie Jones
Stephen Kunken: Benjamin
Seth Gilliam: Frederic Johnson
Daniel Gerroll: Eric Wellman
Erin Darke: Jenny

Alice Howland è una donna alla soglia dei cinquant'anni, orgogliosa degli obiettivi raggiunti. È un'affermata linguista, insegna alla Columbia University, ha una solida famiglia composta dal marito chimico e tre figli: Anna, Tom e Lydia. Ad un certo punto, nella vita di Alice, qualcosa comincia a cambiare, dapprima qualche dimenticanza ed in seguito veri e propri momenti di "vuoto" durante i quali non riconosce il posto in cui si trova.

Questi eventi convincono Alice a ricorrere ad accertamenti medici e le viene diagnosticata una forma presenile di Alzheimer di matrice genetica. Tutte le sue certezze crollano, facendola diventare una donna fragile e indifesa, anche agli occhi della famiglia che l'ha sempre vista come un pilastro. Il film racconta come Alice affronta la malattia ed il progressivo ed inarrestabile decadimento cognitivo.






General
Unique ID : 241370005475350161479390157398653552905 (0xB5962C103323CA578F3F57A94DF84909)
Complete name : D:\Downloads\Still.Alice.2014.iTA-ENG.Bluray.1080p.x264-TRL.mkv
Format : Matroska
Format version : Version 2
File size : 7.74 GiB
Duration : 1 h 41 min
Overall bit rate : 10.9 Mb/s
Encoded date : UTC 2015-05-19 19:36:50
Writing application : mkvmerge v7.1.0 ('Good Love') 32bit built on Jul 27 2014 12:59:18
Writing library : libebml v1.3.0 + libmatroska v1.4.1
Attachments : Still.Alice.2014.Blu-ray.REMUX.1080p-HDArea.rar

Video
ID : 1
Format : AVC
Format/Info : Advanced Video Codec
Format profile : [email protected]
Format settings, CABAC : Yes
Format settings, ReFrames : 4 frames
Codec ID : V_MPEG4/ISO/AVC
Duration : 1 h 41 min
Bit rate : 8 579 kb/s
Width : 1 920 pixels
Height : 1 036 pixels
Display aspect ratio : 1.85:1
Frame rate mode : Constant
Frame rate : 23.976 (24000/1001) FPS
Color space : YUV
Chroma subsampling : 4:2:0
Bit depth : 8 bits
Scan type : Progressive
Bits/(Pixel*Frame) : 0.180
Stream size : 6.07 GiB (78%)
Writing library : x264 core 146 r2538 121396c
Language : English
Default : Yes
Forced : No

Audio #1
ID : 2
Format : AC-3
Format/Info : Audio Coding 3
Format settings, Endianness : Big
Codec ID : A_AC3
Duration : 1 h 41 min
Bit rate mode : Constant
Bit rate : 448 kb/s
Channel(s) : 6 channels
Channel positions : Front: L C R, Side: L R, LFE
Sampling rate : 48.0 kHz
Frame rate : 31.250 FPS (1536 spf)
Bit depth : 16 bits
Compression mode : Lossy
Stream size : 324 MiB (4%)
Title : DVD RESYNC 448Kbps 5.1 Ch
Language : Italian
Service kind : Complete Main
Default : Yes
Forced : No

Audio #2
ID : 3
Format : AC-3
Format/Info : Audio Coding 3
Format settings, Endianness : Big
Codec ID : A_AC3
Duration : 1 h 41 min
Bit rate mode : Constant
Bit rate : 192 kb/s
Channel(s) : 2 channels
Channel positions : Front: L R
Sampling rate : 48.0 kHz
Frame rate : 31.250 FPS (1536 spf)
Bit depth : 16 bits
Compression mode : Lossy
Stream size : 139 MiB (2%)
Title : DVD RESYNC 192Kbps 2.0 Ch
Language : Italian
Service kind : Complete Main
Default : No
Forced : No

Audio #3
ID : 4
Format : DTS
Format/Info : Digital Theater Systems
Mode : 16
Format settings, Endianness : Big
Codec ID : A_DTS
Duration : 1 h 41 min
Bit rate mode : Constant
Bit rate : 1 509 kb/s
Channel(s) : 6 channels
Channel positions : Front: L C R, Side: L R, LFE
Sampling rate : 48.0 kHz
Frame rate : 93.750 FPS (512 spf)
Bit depth : 24 bits
Compression mode : Lossy
Stream size : 1.07 GiB (14%)
Language : English
Default : No
Forced : No

Text #1
ID : 5
Format : UTF-8
Codec ID : S_TEXT/UTF8
Codec ID/Info : UTF-8 Plain Text
Title : FORCED
Language : Italian
Default : Yes
Forced : No

Text #2
ID : 6
Format : UTF-8
Codec ID : S_TEXT/UTF8
Codec ID/Info : UTF-8 Plain Text
Language : Italian
Default : No
Forced : No

Text #3
ID : 7
Format : UTF-8
Codec ID : S_TEXT/UTF8
Codec ID/Info : UTF-8 Plain Text
Language : English
Default : No
Forced : No









Recently Added Torrents in Movies

Trackers List

tracker name
udp://tracker.opentrackr.org:1337/announce
udp://tracker.leechers-paradise.org:6969/announce
udp://tracker.pirateparty.gr:6969/announce
udp://tracker.coppersurfer.tk:6969/announce
udp://tracker.mg64.net:2710/announce
udp://tracker.zer0day.to:1337/announce

Sharing Widget


Download torrent
7.7 GB
Seeders: 2
Leechers: n/a
Still Alice (2014), [BDmux 1080p - H264 - Ita Ac3 Eng Dts 5 1 - Sub Ita Eng] Drammatico by TRL