Żniwiarz / Reaper
Marketing
Loading...
Loading...
Loading...

Strike Back S01-05e01-46, [Mux - XviD - Ita Eng Mp3 - Sub Ita Eng] BDMux

Seeders: 9
Leechers: 7
Completed: 59

Age: 2 months    Visits: 62    Category: TV    Size: 21.3 GB

Posted by: Alice1337x    Comments: Read Comments

Info Hash: A72B91D3B157D8FCC465E086CFF3BF5296364EE4



Now You Can Download Torrents From Kat.cr, Kickasstorrent Very Easily



Torrent Description



Strike Back S01-05e01-46



Anno: 2010-2015
Genere: azione, spionaggio

Cast:
Philip Winchester: Serg. Michael Stonebridge
Sullivan Stapleton: Serg. Damien Scott
Richard Armitage: Serg. John Porter
Andrew Lincoln: Magg. Hugh Collinson
Jodhi May: Layla Thompson
Shelley Conn: Danni
Laura Greenwood: Alexandra Porter
Orla Brady: Katie Dartmouth
Amanda Mealing: Col. Eleanor Grant
Michelle Lukes: Serg. Julia Richmond
Rhashan Stone: Magg. Oliver Sinclair
Jimi Mistry: Latif
Rhona Mitra: Magg. Rachel Dalton
Liam Garrigan: Serg. Liam Baxter
Charles Dance: Conrad Knox
Stephanie Vogt: Christy Bryant
Robson Green: Col. Philip Locke
Zubin Varla: Leo Kamali

Prima stagione: Chris Ryan's Strike Back
Siamo in ambito militare, nel cuore delle aree più calde del paese, al seguito di due uomini forti e allo stesso tempo turbati da un passato traumatico. La serie infatti segue le vicende di John Porter, un sergente della SAS (Special Air Service) e Hugh Collinson, un ufficiale della "Sezione 20" dei servizi segreti militari inglesi, impegnata in tutti gli scenari di crisi mondiale. Entrambi hanno partecipato ad un'operazione durante l'invasione dell'Iraq del 2003 in cui due loro compagni restarono uccisi. Da questo avvenimento si dipanano tre storie diverse che si sviluppano durante i tre episodi della serie: nel primo viene raccontato il rapimento di Katie Dartmouth, giornalista inglese inviata in Iraq che Porter deve salvare da una situazione pericolosa. Nel secondo, ambientato in Zimbabwe, Porter entra come infiltrato nella prigione di massima sicurezza in cui è tenuto prigioniero un cittadino inglese accusato dell'assassinio del Presidente Mugabe, per aiutarlo ad evadere. Nell'ultimo episodio, infine, ambientato in parte in Afghanistan in parte in Pakistan, seguiremo un hacker responsabile della morte di alcune truppe americane a Helmand.

Seconda stagione: Project Dawn
La stagione racconta le azioni della "Sezione 20", squadra tattica operativa del Military Intelligence britannico, guidata dal colonnello Grant (dopo la morte del magg. Collinson), e in particolare del sergente Michael Stonebridge e di un ex Delta Force americano, il sergente Damian Scott. La Sezione 20 cerca di liberare John Porter e conduce una caccia all'uomo partendo dall'Iraq in tutto il mondo (Pakistan, Kosovo, Cecenia, Ungheria) per trovare e catturare il terrorista pakistano Latif, che dopo aver ucciso Porter, sta tramando un intervento conosciuto come "Progetto Aurora".

Le riprese sono iniziate nel febbraio 2011 e si sono svolte a Città del Capo, Sud Africa e Ungheria.

Terza stagione: Vengeance
Al comando della sezione 20, dopo la morte del colonnello Eleanor Grant, ora c'è il maggiore Rachel Dalton. L'azione si svolge in Africa, tra la Somalia, il Niger e il Sud Africa, e Damien Scott con il sergente Michael Stonebridge lotteranno contro terroristi internazionali che vogliono impadronirsi di armi nucleari.

Quarta stagione: Shadow Warfare
Questa volta la sezione 20 sarà alle prese con l'inseguimento del pericoloso terrorista al-Zuhari e dei suoi partner del cartello. L'inseguimento si dislocherà tra diversi scenari e diverse paesi tra cui Colombia, Libano ed Europa. Nel corso degli eventi il maggiore Dalton viene uccisa e il comando della sezione 20 è preso direttamente dal suo superiore, il colonnello Philip Locke, che con i suoi uomini sventa un attacco biologico alla base aerea di Ramstein.

Quinta stagione: Legacy
La Sezione 20 si reca a Bangkok per l'operazione di salvataggio della figlia dell'ambasciatore britannico, rapita nella città tahilandese. Presto l'unità si troverà ad avere a che fare, però, con un gigantesco complotto terroristico con implicazioni globali, che porterà la Sezione 20 ad operare in Europa ed Asia ed a confrontarsi con mercenari, criminali giapponesi, cyber-terroristi, nord coreani, mafia russa, ed altri pericolosi avversari.







General
Complete name : D:\Da uppare\57R1K3.B4CK.S01-05e01-46\Strike.Back.5x10.ITA.ENG.BDMux.XviD.avi
Format : AVI
Format/Info : Audio Video Interleave
File size : 478 MiB
Duration : 45 min 27 s
Overall bit rate : 1 469 kb/s
Writing application : VirtualDubMod 1.5.10.2 (build 2542/release)
Writing library : VirtualDubMod build 2542/release

Video
ID : 0
Format : MPEG-4 Visual
Format profile : Advanced [email protected]
Format settings : BVOP1
Format settings, BVOP : 1
Format settings, QPel : No
Format settings, GMC : No warppoints
Format settings, Matrix : Default (MPEG)
Codec ID : XVID
Codec ID/Hint : XviD
Duration : 45 min 27 s
Bit rate : 1 199 kb/s
Width : 624 pixels
Height : 352 pixels
Display aspect ratio : 16:9
Frame rate : 25.000 FPS
Color space : YUV
Chroma subsampling : 4:2:0
Bit depth : 8 bits
Scan type : Progressive
Compression mode : Lossy
Bits/(Pixel*Frame) : 0.218
Stream size : 390 MiB (82%)
Writing library : XviD 67

Audio #1
ID : 1
Format : MPEG Audio
Format version : Version 1
Format profile : Layer 3
Format settings : Joint stereo / MS Stereo
Mode : Joint stereo
Mode extension : MS Stereo
Codec ID : 55
Codec ID/Hint : MP3
Duration : 45 min 27 s
Bit rate mode : Constant
Bit rate : 128 kb/s
Channel(s) : 2 channels
Sampling rate : 48.0 kHz
Compression mode : Lossy
Stream size : 41.6 MiB (9%)
Alignment : Aligned on interleaves
Interleave, duration : 40 ms (1.00 video frame)
Interleave, preload duration : 504 ms
Title : Italian
Writing library : LAME3.99r
Encoding settings : -m j -V 4 -q 2 -lowpass 17 -b 128

Audio #2
ID : 2
Format : MPEG Audio
Format version : Version 1
Format profile : Layer 3
Format settings : Joint stereo / MS Stereo
Mode : Joint stereo
Mode extension : MS Stereo
Codec ID : 55
Codec ID/Hint : MP3
Duration : 45 min 27 s
Bit rate mode : Constant
Bit rate : 128 kb/s
Channel(s) : 2 channels
Sampling rate : 48.0 kHz
Compression mode : Lossy
Stream size : 41.6 MiB (9%)
Alignment : Aligned on interleaves
Interleave, duration : 40 ms (1.00 video frame)
Interleave, preload duration : 504 ms
Title : English
Writing library : LAME3.99r
Encoding settings : -m j -V 4 -q 2 -lowpass 17 -b 128

GRAZIE ai NovaRip e ai DarkSideMux per il mux delle prime due stagioni
GRAZIE a isubtitles per i sub eng e a subsfactory per i sub ita
GRAZIE a pir8 per la sua guida al mux







Recently Added Torrents in TV

Trackers List

tracker name
udp://tracker.opentrackr.org:1337/announce
udp://tracker.leechers-paradise.org:6969/announce
udp://tracker.pirateparty.gr:6969/announce
udp://tracker.coppersurfer.tk:6969/announce
udp://tracker.mg64.net:2710/announce
udp://tracker.zer0day.to:1337/announce

Sharing Widget


Download torrent
21.3 GB
Seeders: 9
Leechers: 7
Strike Back S01-05e01-46, [Mux - XviD - Ita Eng Mp3 - Sub Ita Eng] BDMux