portega1
[Sub English]
Loading...
Loading...
Loading...
Loading...

The Way Back (2010), [BDrip 1080p - Ita Eng Dts Ac3 5 1 - Sub NUIta] by BLUWORLD - drammatico

Seeders: 1
Leechers: 1
Completed: 30

Age: 2 months    Visits: 59    Category: Movies    Size: 19.1 GB

Posted by: Alice1337x    Comments: Read Comments

Info Hash: 2D5EC5FC46566D063278C12FF419F7A28EEAB9A1



Now You Can Download Torrents From Kat.cr, Kickasstorrent Very Easily



Torrent Description



The Way Back (2010)



Titolo originale: The Way Back
Nazionalità: Stati Uniti d'America
Anno: 2010
Genere: drammatico
Regia: Peter Weir

Cast
Jim Sturgess: Janusz
Ed Harris: Mr. Smith
Drago? Bucur: Zoran
Saoirse Ronan: Irena
Mark Strong: Khabarov
Alexandru Potocean: Tomasz
Colin Farrell: Valka
Gustaf Skarsgård: Voss
Sebastian Urzendowsky: Kazik
Zachary Baharov: Interrogatore
Sally E. Brunski: Moglie di Janusz 1939
Maglena Karalambova: Moglie di Janusz 1989

1939. Un tenente dell'esercito polacco viene accusato di spionaggio e condannato a 20 anni di lavori forzati presso un gulag siberiano. Dopo un periodo di prigionia, assieme a sei carcerati, organizza l'evasione dal gulag, così nel 1941 assieme ai suoi compagni si avventura in una disperata fuga, che porta questi uomini a percorrere migliaia di chilometri, attraversando la ferrovia transiberiana e il deserto del Gobi e patendo fame, gelo e malattie, fino ad arrivare in India nel 1942. Sfortunatamente però non tutti i compagni di Janusz riescono a portare a termine il viaggio, infatti Valka, un criminale russo, abbandona il gruppo poco prima del passaggio di frontiera tra Russia e Mongolia, decidendo di rimanere nella terra natìa; Irena muore per disidratazione nel deserto, stessa fine che toccherá successivamente a Tomasz, pittore di grande talento. Mr. Smith invece, una volta arrivato a Lhasa decide di proseguire per la sua strada e raggiungere una base statunitense mentre Janusz e i suoi due compagni decidono di proseguire e oltrepassare la catena dell'Himalaya per giungere in India. Nella scena finale del film si vede uno Janusz, ormai anziano, che ritorna dalla moglie in Polonia, dopo il crollo del Comunismo.







General
Unique ID : 243446037368816289927336614879387416066 (0xB72600569468B9739D7F2DD46DBB7602)
Complete name : D:\Downloads\The.Way.Back.2010.DTS.ITA.ENG.1080p.BluRay.x264-BLUWORLD.mkv
Format : Matroska
Format version : Version 2
File size : 19.1 GiB
Duration : 2 h 13 min
Overall bit rate : 20.5 Mb/s
Encoded date : UTC 2012-11-12 08:26:19
Writing application : mkvmerge v5.8.0 ('No Sleep / Pillow') built on Sep 2 2012 15:37:04
Writing library : libebml v1.2.3 + libmatroska v1.3.0

Video
ID : 1
Format : AVC
Format/Info : Advanced Video Codec
Format profile : [email protected]
Format settings, CABAC : Yes
Format settings, RefFrames : 5 frames
Muxing mode : Header stripping
Codec ID : V_MPEG4/ISO/AVC
Duration : 2 h 13 min
Bit rate : 15.8 Mb/s
Nominal bit rate : 17.0 Mb/s
Width : 1 920 pixels
Height : 816 pixels
Display aspect ratio : 2.35:1
Frame rate mode : Constant
Frame rate : 24.000 FPS
Color space : YUV
Chroma subsampling : 4:2:0
Bit depth : 8 bits
Scan type : Progressive
Bits/(Pixel*Frame) : 0.420
Stream size : 14.7 GiB (77%)
Writing library : x264 core 120
Default : Yes
Forced : No
Color range : Limited
Color primaries : BT.709
Transfer characteristics : BT.709
Matrix coefficients : BT.709

Audio #1
ID : 2
Format : DTS
Format/Info : Digital Theater Systems
Mode : 16
Format settings, Endianness : Big
Muxing mode : Header stripping
Codec ID : A_DTS
Duration : 2 h 13 min
Bit rate mode : Constant
Bit rate : 1 509 kb/s
Channel(s) : 6 channels
Channel positions : Front: L C R, Side: L R, LFE
Sampling rate : 48.0 kHz
Frame rate : 93.750 FPS (512 SPF)
Bit depth : 24 bits
Compression mode : Lossy
Delay relative to video : 10 ms
Stream size : 1.41 GiB (7%)
Title : Ita. DTS 1510 Kbps
Language : Italian
Default : Yes
Forced : No

Audio #2
ID : 3
Format : AC-3
Format/Info : Audio Coding 3
Format settings, Endianness : Big
Muxing mode : Header stripping
Codec ID : A_AC3
Duration : 2 h 13 min
Bit rate mode : Constant
Bit rate : 640 kb/s
Channel(s) : 6 channels
Channel positions : Front: L C R, Side: L R, LFE
Sampling rate : 48.0 kHz
Frame rate : 31.250 FPS (1536 SPF)
Bit depth : 16 bits
Compression mode : Lossy
Stream size : 611 MiB (3%)
Title : Ita. AC3 640 kbps
Language : Italian
Service kind : Complete Main
Default : No
Forced : No

Audio #3
ID : 4
Format : DTS
Format/Info : Digital Theater Systems
Mode : 16
Format settings, Endianness : Big
Muxing mode : Header stripping
Codec ID : A_DTS
Duration : 2 h 13 min
Bit rate mode : Constant
Bit rate : 1 509 kb/s
Channel(s) : 6 channels
Channel positions : Front: L C R, Side: L R, LFE
Sampling rate : 48.0 kHz
Frame rate : 93.750 FPS (512 SPF)
Bit depth : 24 bits
Compression mode : Lossy
Delay relative to video : 10 ms
Stream size : 1.41 GiB (7%)
Title : Eng. DTS 1510 Kbps
Language : English
Default : No
Forced : No

Audio #4
ID : 5
Format : AC-3
Format/Info : Audio Coding 3
Format settings, Endianness : Big
Muxing mode : Header stripping
Codec ID : A_AC3
Duration : 2 h 13 min
Bit rate mode : Constant
Bit rate : 640 kb/s
Channel(s) : 6 channels
Channel positions : Front: L C R, Side: L R, LFE
Sampling rate : 48.0 kHz
Frame rate : 31.250 FPS (1536 SPF)
Bit depth : 16 bits
Compression mode : Lossy
Stream size : 611 MiB (3%)
Title : Eng. AC3 640 kbps
Language : English
Service kind : Complete Main
Default : No
Forced : No

Text
ID : 6
Format : UTF-8
Codec ID : S_TEXT/UTF8
Codec ID/Info : UTF-8 Plain Text
Title : Sub. Ita. Non Udenti
Language : Italian
Default : No
Forced : No









Recently Added Torrents in Movies

Trackers List

tracker name
udp://tracker.opentrackr.org:1337/announce
udp://tracker.leechers-paradise.org:6969/announce
udp://tracker.pirateparty.gr:6969/announce
udp://tracker.coppersurfer.tk:6969/announce
udp://tracker.mg64.net:2710/announce
udp://tracker.zer0day.to:1337/announce

Sharing Widget


Download torrent
19.1 GB
Seeders: 1
Leechers: 1
The Way Back (2010), [BDrip 1080p - Ita Eng Dts Ac3 5 1 - Sub NUIta] by BLUWORLD - drammatico