portega1
[Sub English]
Loading...
Loading...
Loading...
Loading...

Vehicle 19 (2013), [BDrip 1080p - H264 - Ita Eng Dts 5 1 Ita Ac3 5 1 - Sub Ita] Thriller, Azione - by BLUWORLD

Seeders: 1
Leechers: 1
Completed: n/a

Age: 2 months    Visits: 94    Category: Movies    Size: 7.0 GB

Posted by: Alice1337x    Comments: Read Comments

Info Hash: C343887C1953ADF8DA95FE8F7E85C758F66670BF



Now You Can Download Torrents From Kat.cr, Kickasstorrent Very Easily



Torrent Description



Vehicle 19 (2013)



Titolo originale: Vehicle 19
Nazionalità: Stati Uniti
Anno: 2013
Genere: thriller, azione
Regia: Mukunda Michael Dewil

Cast:
Paul Walker: Michael Woods
Naima McLean: Rachel Shabangu
Gys de Villiers: Detective Smith
Leyla Haidarian: Angelica Moore
Tshepo Maseko: tenente
Andrian Mazive: giornalista
Welile Nzuza: Mohawk
Mangaliso Ngema: giudice
Ernest Kubayi: Crackhead

Un americano viene coinvolto a sua insaputa nel trasporto di un testimone in un processo contro un'associazione criminale. L'uomo dovrà combattere la polizia corrotta e i delinquenti che vogliono mettere a tacere il testimone.






General
Unique ID : 194173125332160010262093308715796916413 (0x92146236B4B7EEBE93DEE4251E1DE8BD)
Complete name : D:\Vehicle.19.2013.DTS.ITA.ENG.1080p.BluRay.x264-BLUWORLD.mkv
Format : Matroska
Format version : Version 4 / Version 2
File size : 7.04 GiB
Duration : 1 h 25 min
Overall bit rate mode : Variable
Overall bit rate : 11.9 Mb/s
Encoded date : UTC 2015-12-28 11:10:17
Writing application : mkvmerge v8.6.1 ('Flying') 32bit
Writing library : libebml v1.3.3 + libmatroska v1.4.4

Video
ID : 1
Format : AVC
Format/Info : Advanced Video Codec
Format profile : [email protected]
Format settings, CABAC : Yes
Format settings, ReFrames : 5 frames
Codec ID : V_MPEG4/ISO/AVC
Duration : 1 h 25 min
Bit rate mode : Variable
Bit rate : 8 200 kb/s
Maximum bit rate : 62.5 Mb/s
Width : 1 920 pixels
Height : 800 pixels
Display aspect ratio : 2.40:1
Frame rate mode : Constant
Frame rate : 24.000 FPS
Color space : YUV
Chroma subsampling : 4:2:0
Bit depth : 8 bits
Scan type : Progressive
Bits/(Pixel*Frame) : 0.222
Stream size : 4.87 GiB (69%)
Writing library : x264 core 148 r2638 7599210
Default : Yes
Forced : No

Audio #1
ID : 2
Format : DTS
Format/Info : Digital Theater Systems
Mode : 16
Format settings, Endianness : Big
Codec ID : A_DTS
Duration : 1 h 25 min
Bit rate mode : Constant
Bit rate : 1 509 kb/s
Channel(s) : 6 channels
Channel positions : Front: L C R, Side: L R, LFE
Sampling rate : 48.0 kHz
Frame rate : 93.750 FPS (512 spf)
Bit depth : 16 bits
Compression mode : Lossy
Stream size : 918 MiB (13%)
Title : Ita. DTS 1510 Kbps
Language : Italian
Default : Yes
Forced : No

Audio #2
ID : 3
Format : AC-3
Format/Info : Audio Coding 3
Format settings, Endianness : Big
Codec ID : A_AC3
Duration : 1 h 25 min
Bit rate mode : Constant
Bit rate : 640 kb/s
Channel(s) : 6 channels
Channel positions : Front: L C R, Side: L R, LFE
Sampling rate : 48.0 kHz
Frame rate : 31.250 FPS (1536 spf)
Bit depth : 16 bits
Compression mode : Lossy
Stream size : 389 MiB (5%)
Title : Ita. AC3 640 Kbps
Language : Italian
Service kind : Complete Main
Default : No
Forced : No

Audio #3
ID : 4
Format : DTS
Format/Info : Digital Theater Systems
Mode : 16
Format settings, Endianness : Big
Codec ID : A_DTS
Duration : 1 h 25 min
Bit rate mode : Constant
Bit rate : 1 509 kb/s
Channel(s) : 6 channels
Channel positions : Front: L C R, Side: L R, LFE
Sampling rate : 48.0 kHz
Frame rate : 93.750 FPS (512 spf)
Bit depth : 16 bits
Compression mode : Lossy
Stream size : 918 MiB (13%)
Title : Eng. DTS 1510 Kbps
Language : English
Default : No
Forced : No

Text #1
ID : 5
Format : UTF-8
Codec ID : S_TEXT/UTF8
Codec ID/Info : UTF-8 Plain Text
Duration : 53 min 15 s
Bit rate : 1 b/s
Count of elements : 12
Stream size : 416 Bytes (0%)
Title : Sub. Ita. Forced
Language : Italian
Default : Yes
Forced : Yes

Text #2
ID : 6
Format : UTF-8
Codec ID : S_TEXT/UTF8
Codec ID/Info : UTF-8 Plain Text
Duration : 1 h 15 min
Bit rate : 40 b/s
Count of elements : 526
Stream size : 22.3 KiB (0%)
Title : Sub. Ita.
Language : Italian
Default : No
Forced : No

Menu
00:00:00.000 : en:00:00:00.000
00:08:19.667 : en:00:08:19.667
00:17:15.583 : en:00:17:15.583
00:21:24.917 : en:00:21:24.917
00:26:03.083 : en:00:26:03.083
00:33:11.292 : en:00:33:11.292
00:37:26.667 : en:00:37:26.667
00:44:54.375 : en:00:44:54.375
00:52:25.333 : en:00:52:25.333
01:03:25.625 : en:01:03:25.625
01:12:05.083 : en:01:12:05.083
01:17:21.208 : en:01:17:21.208









Recently Added Torrents in Movies

Trackers List

tracker name
udp://tracker.opentrackr.org:1337/announce
udp://tracker.leechers-paradise.org:6969/announce
udp://tracker.pirateparty.gr:6969/announce
udp://tracker.coppersurfer.tk:6969/announce
udp://tracker.mg64.net:2710/announce
udp://tracker.zer0day.to:1337/announce

Sharing Widget


Download torrent
7.0 GB
Seeders: 1
Leechers: 1
Vehicle 19 (2013), [BDrip 1080p - H264 - Ita Eng Dts 5 1 Ita Ac3 5 1 - Sub Ita] Thriller, Azione - by BLUWORLD