Ver Rampage (2018) película en línea gratis en Netflix
Hustle & Soul: Season 2
Loading...
Loading...
Loading...

Winchester 2018 Movies HDRip x264 5 1 with Sample ☻rDX☻

Seeders: 1
Leechers: 1
Completed: n/a

Age: 2 minutes    Visits: 1    Category: Movies    Size: 847.1 MB

Posted by: nehalpuja    Comments: Read Comments

Info Hash: D4733096DFDFBD752C883358AC288768C6F42D7A



Now You Can Download Torrents From Kat.cr, Kickasstorrent Very Easily



Torrent Description



Winchester 2018 Movies HDRip x264 5.1 with Sample ☻rDX☻
===============================================================================================

SCREEN SHOTS:



or

http://iphonehosting.eu/2018/4/banking/1.html

File size : 839 MiB
Duration : 1 h 39 min
Overall bit rate mode : Constant
Overall bit rate : 1 179 kb/s
Movie name : Winchester 2018 Movies HDRip x264 5.1 ☻rDX☻

Video
ID : 2
Format : AVC
Format/Info : Advanced Video Codec
Format profile : [email protected]
Format settings, CABAC : Yes
Format settings, ReFrames : 2 frames
Format settings, GOP : M=1, N=12
Codec ID : V_MPEG4/ISO/AVC
Duration : 1 h 39 min
Bit rate mode : Constant
Bit rate : 796 kb/s
Width : 720 pixels
Height : 304 pixels
Display aspect ratio : 2.35:1
Frame rate mode : Constant
Frame rate : 23.976 FPS
Color space : YUV
Chroma subsampling : 4:2:0
Bit depth : 8 bits
Scan type : Progressive
Bits/(Pixel*Frame) : 0.152
Stream size : 549 MiB (65%)
Title : ☻rDX☻
Default : Yes
Forced : No

Audio
ID : 1
Format : AC-3
Format/Info : Audio Coding 3
Mode extension : CM (complete main)
Format settings, Endianness : Big
Codec ID : A_AC3
Duration : 1 h 39 min
Bit rate mode : Constant
Bit rate : 384 kb/s
Channel(s) : 6 channels
Channel positions : Front: L C R, Side: L R, LFE
Sampling rate : 48.0 kHz
Frame rate : 31.250 FPS (1536 spf)
Bit depth : 16 bits
Compression mode : Lossy
Stream size : 273 MiB (33%)
Title : ☻rDX☻
Default : Yes
Forced : No



IMDB : http://www.imdb.com/title/tt1072748





Recently Added Torrents in Movies

Trackers List

tracker name
udp://tracker.opentrackr.org:1337/announce
udp://tracker.leechers-paradise.org:6969/announce
udp://tracker.pirateparty.gr:6969/announce
udp://tracker.coppersurfer.tk:6969/announce
udp://tracker.mg64.net:2710/announce
udp://tracker.zer0day.to:1337/announce

Sharing Widget


Download torrent
847.1 MB
Seeders: 1
Leechers: 1
Winchester 2018 Movies HDRip x264 5 1 with Sample ☻rDX☻